<?xml version="1.0" standalone="no"?>
<!DOCTYPE svg PUBLIC "-//W3C//DTD SVG 1.1//EN" "http://www.w3.org/Graphics/SVG/1.1/DTD/svg11.dtd" >
<svg xmlns="http://www.w3.org/2000/svg" xmlns:xlink="http://www.w3.org/1999/xlink" version="1.1">
<metadata>
Created by FontForge 20170731 at Wed Apr 25 19:11:58 2012
 By Aleksey,,,
(C) 2012. Olivier Gourvat - Mostardesign Studio. wf-rip
</metadata>
<defs>
<font id="SofiaPro-SemiBold" horiz-adv-x="1161" >
  <font-face 
    font-family="Sofia Pro SemiBold"
    font-weight="600"
    font-stretch="normal"
    units-per-em="2048"
    panose-1="2 11 0 0 0 0 0 0 0 0"
    ascent="1536"
    descent="-512"
    x-height="956"
    cap-height="1411"
    bbox="-362 -561 2310 2273"
    underline-thickness="102"
    underline-position="-306"
    unicode-range="U+0020-FB04"
  />
<missing-glyph horiz-adv-x="1300" 
d="M164 0v1362h973v-1362h-973zM379 883h127q0 76 43 123t108 47t114.5 -42t49.5 -108q0 -60 -49 -102q-32 -35 -67 -43q-92 -28 -141.5 -79t-49.5 -147v-77h127v77q0 46 25.5 67.5t76.5 35.5q88 28 145.5 99t57.5 169q0 123 -85 200t-204 77q-117 0 -197.5 -82t-80.5 -215z
M485 268q0 -38 28 -63t67 -25q38 0 65 25t27 63t-27 63t-65 25q-39 0 -67 -25t-28 -63z" />
    <glyph glyph-name="uniFB00" unicode="ff" horiz-adv-x="1515" 
d="M47 756v200h182v76q0 212 104.5 328.5t303.5 116.5h104v-240h-104q-156 0 -156 -205v-76h533v76q0 212 104 328.5t303 116.5h105v-240h-105q-155 0 -155 -205v-76h202v-200h-202v-756h-252v756h-533v-756h-252v756h-182z" />
    <glyph glyph-name="uniFB01" unicode="fi" horiz-adv-x="1347" 
d="M47 756v200h182v76q0 212 104.5 328.5t303.5 116.5h104v-240h-104q-156 0 -156 -205v-76h727v-956h-247v756h-480v-756h-252v756h-182zM924 1327q0 63 47.5 106.5t113.5 43.5q65 0 111.5 -43.5t46.5 -106.5q0 -64 -46.5 -107.5t-111.5 -43.5q-67 0 -114 43.5t-47 107.5z
" />
    <glyph glyph-name="uniFB02" unicode="fl" horiz-adv-x="1361" 
d="M47 756v200h182v76q0 212 104.5 328.5t303.5 116.5h584v-1477h-250v1237h-334q-156 0 -156 -205v-76h203v-200h-203v-756h-252v756h-182z" />
    <glyph glyph-name="uniFB03" unicode="ffi" horiz-adv-x="2131" 
d="M47 756v200h182v76q0 212 104.5 328.5t303.5 116.5h104v-240h-104q-156 0 -156 -205v-76h533v76q0 212 104 328.5t303 116.5h105v-240h-105q-155 0 -155 -205v-76h727v-956h-248v756h-479v-756h-252v756h-533v-756h-252v756h-182zM1708 1327q0 63 48 106.5t114 43.5
q65 0 111.5 -43.5t46.5 -106.5q0 -64 -46.5 -107.5t-111.5 -43.5q-67 0 -114.5 43.5t-47.5 107.5z" />
    <glyph glyph-name="uniFB04" unicode="ffl" horiz-adv-x="2146" 
d="M47 756v200h182v76q0 212 104.5 328.5t303.5 116.5h104v-240h-104q-156 0 -156 -205v-76h533v76q0 212 104 328.5t303 116.5h584v-1477h-250v1237h-334q-155 0 -155 -205v-76h202v-200h-202v-756h-252v756h-533v-756h-252v756h-182z" />
    <glyph glyph-name="f_f_j" unicode="ffj" horiz-adv-x="2107" 
d="M47 756v200h182v76q0 212 104.5 328.5t303.5 116.5h104v-240h-104q-156 0 -156 -205v-76h533v76q0 212 104 328.5t303 116.5h105v-240h-105q-155 0 -155 -205v-76h702v-1019q0 -198 -83 -306t-273 -108h-158v229h121q145 0 141 180v824h-450v-756h-252v756h-533v-756
h-252v756h-182zM1681 1327q0 62 47.5 106t112.5 44q67 0 113.5 -43.5t46.5 -106.5q0 -64 -46 -107.5t-114 -43.5q-65 0 -112.5 43.5t-47.5 107.5z" />
    <glyph glyph-name="f_j" unicode="fj" horiz-adv-x="1323" 
d="M47 756v200h182v76q0 212 104.5 328.5t303.5 116.5h104v-240h-104q-156 0 -156 -205v-76h703v-1019q0 -198 -83.5 -306t-273.5 -108h-157v229h121q145 0 141 180v824h-451v-756h-252v756h-182zM897 1327q0 62 47.5 106t112.5 44q67 0 113.5 -43.5t46.5 -106.5
q0 -64 -46 -107.5t-114 -43.5q-65 0 -112.5 43.5t-47.5 107.5z" />
    <glyph glyph-name=".notdef" horiz-adv-x="1300" 
d="M164 0v1362h973v-1362h-973zM379 883h127q0 76 43 123t108 47t114.5 -42t49.5 -108q0 -60 -49 -102q-32 -35 -67 -43q-92 -28 -141.5 -79t-49.5 -147v-77h127v77q0 46 25.5 67.5t76.5 35.5q88 28 145.5 99t57.5 169q0 123 -85 200t-204 77q-117 0 -197.5 -82t-80.5 -215z
M485 268q0 -38 28 -63t67 -25q38 0 65 25t27 63t-27 63t-65 25q-39 0 -67 -25t-28 -63z" />
    <glyph glyph-name=".null" horiz-adv-x="0" 
 />
    <glyph glyph-name="nonmarkingreturn" horiz-adv-x="682" 
 />
    <glyph glyph-name="space" unicode=" " horiz-adv-x="507" 
 />
    <glyph glyph-name="exclam" unicode="!" horiz-adv-x="573" 
d="M125 135q0 66 47 111t113 45q68 0 116 -44.5t48 -111.5t-48 -111t-116 -44q-66 0 -113 44.5t-47 110.5zM141 1411h293l-39 -999h-215z" />
    <glyph glyph-name="quotedbl" unicode="&#x22;" horiz-adv-x="722" 
d="M133 1411h182l-20 -602h-141zM408 1411h182l-21 -602h-141z" />
    <glyph glyph-name="numbersign" unicode="#" horiz-adv-x="1431" 
d="M72 338l51 184h225l101 348h-222l49 185h226l104 356h209l-102 -356h211l104 356h209l-104 -356h227l-51 -185h-230l-102 -348h227l-51 -184h-227l-107 -338h-207l103 338h-211l-105 -338h-204l102 338h-225zM555 522h211l104 348h-213z" />
    <glyph glyph-name="dollar" unicode="$" horiz-adv-x="1165" 
d="M86 412h262q3 -81 69 -140t175 -59q103 0 165.5 48t67.5 122q4 70 -43.5 117t-150.5 75l-174 46q-357 105 -357 393q0 167 118.5 279t297.5 130v215h141v-217q173 -22 280 -134.5t107 -285.5h-262q0 84 -57 134.5t-154 50.5q-90 0 -150.5 -46t-60.5 -120q0 -117 168 -162
l174 -51q114 -31 194 -79.5t121.5 -106.5t58 -118t11.5 -126q-9 -169 -130 -274t-300 -121v-232h-141v232q-193 22 -311.5 142t-118.5 288z" />
    <glyph glyph-name="percent" unicode="%" horiz-adv-x="1409" 
d="M74 1090q0 115 78.5 194.5t193.5 79.5q114 0 194.5 -80t80.5 -194q0 -115 -80 -194t-195 -79t-193.5 78.5t-78.5 194.5zM231 1090q0 -50 32.5 -82.5t82.5 -32.5q48 0 82.5 33t34.5 82q0 47 -35 81.5t-82 34.5q-49 0 -82 -34t-33 -82zM293 0l665 1354h140l-666 -1354h-139
zM788 252q0 114 79 194t194 80q114 0 194 -80t80 -194q0 -115 -79.5 -193.5t-194.5 -78.5q-116 0 -194.5 78.5t-78.5 193.5zM946 252q0 -50 33 -82.5t82 -32.5q48 0 82.5 33t34.5 82q0 47 -35 82t-82 35q-49 0 -82 -34.5t-33 -82.5z" />
    <glyph glyph-name="ampersand" unicode="&#x26;" horiz-adv-x="1396" 
d="M106 406q0 128 58.5 222.5t167.5 141.5q-68 33 -110 105.5t-42 166.5q0 151 113 262t282 117q120 4 220 -46.5t163 -141.5l-210 -129q-58 76 -142 76q-74 0 -117 -45.5t-43 -106.5q0 -14 3.5 -33t15 -44.5t29.5 -45.5t50 -34.5t72 -14.5h248v168h234v-168h170v-203h-170
v-233q0 -125 38.5 -172t159.5 -47v-221q-158 2 -246.5 38t-123.5 129q-43 -78 -143.5 -122.5t-202.5 -44.5q-204 0 -339 121t-135 305zM371 420q11 -91 73.5 -144t163.5 -53q105 0 180.5 75t75.5 214v141h-256q-65 0 -115 -23.5t-76 -60t-37.5 -75t-8.5 -74.5z" />
    <glyph glyph-name="quotesingle" unicode="'" horiz-adv-x="448" 
d="M133 1411h182l-20 -602h-141z" />
    <glyph glyph-name="parenleft" unicode="(" horiz-adv-x="774" 
d="M86 469q0 279 80 498t221 339.5t318 120.5v-208q-105 0 -197.5 -100.5t-148.5 -274.5t-56 -375q0 -200 56 -371.5t148.5 -269.5t197.5 -98v-207q-133 0 -247.5 68.5t-196.5 191t-128.5 300t-46.5 386.5z" />
    <glyph glyph-name="parenright" unicode=")" horiz-adv-x="774" 
d="M70 -270q105 0 197.5 98t148 269.5t55.5 371.5q0 202 -55.5 375.5t-148 274t-197.5 100.5v208q177 0 318 -120.5t220.5 -339.5t79.5 -498q0 -209 -46.5 -386.5t-128 -300t-196 -191t-247.5 -68.5v207z" />
    <glyph glyph-name="asterisk" unicode="*" horiz-adv-x="970" 
d="M96 1063l60 176l252 -98l-17 270h189l-19 -268l256 96l55 -176l-260 -70l172 -215l-147 -104l-148 223l-155 -227l-146 110l170 209z" />
    <glyph glyph-name="plus" unicode="+" horiz-adv-x="1046" 
d="M102 436v199h322v319h199v-319h321v-199h-321v-323h-199v323h-322z" />
    <glyph glyph-name="comma" unicode="," horiz-adv-x="555" 
d="M10 -209q69 96 112 228t40 274h258q-3 -106 -27.5 -201.5t-63 -164.5t-76 -116.5t-77.5 -80.5z" />
    <glyph glyph-name="hyphen" unicode="-" horiz-adv-x="976" 
d="M129 391v209h719v-209h-719z" />
    <glyph glyph-name="period" unicode="." horiz-adv-x="557" 
d="M117 135q0 67 46.5 111.5t112.5 44.5q68 0 116 -44.5t48 -111.5t-48 -111t-116 -44q-66 0 -112.5 44.5t-46.5 110.5z" />
    <glyph glyph-name="slash" unicode="/" horiz-adv-x="1026" 
d="M61 0l684 1411h220l-684 -1411h-220z" />
    <glyph glyph-name="zero" unicode="0" horiz-adv-x="1234" 
d="M123 670q0 121 14 220.5t49.5 189.5t91 151t142.5 97t201 36t200.5 -36t141 -97t88.5 -151t47.5 -189t13.5 -221q0 -121 -13.5 -219t-47.5 -188t-88.5 -150.5t-141 -96.5t-200.5 -36t-201 36t-142.5 97t-91 150.5t-49.5 188t-14 218.5zM375 670q0 -445 246 -445
q241 0 241 445q0 448 -241 448q-246 0 -246 -448z" />
    <glyph glyph-name="one" unicode="1" horiz-adv-x="741" 
d="M80 920v225l477 211v-1356h-252v1010z" />
    <glyph glyph-name="two" unicode="2" horiz-adv-x="1107" 
d="M106 969q29 182 151.5 288.5t301.5 106.5q118 0 216 -50t157 -143t59 -210q0 -183 -143 -343l-332 -378h453v-240h-856v129l546 655q82 96 82 177q0 68 -53.5 113.5t-138.5 45.5q-82 0 -139.5 -54t-69.5 -140z" />
    <glyph glyph-name="three" unicode="3" horiz-adv-x="1118" 
d="M76 264q9 5 109.5 55.5t109.5 55.5q31 -63 91 -106.5t126 -43.5q96 0 160.5 56t64.5 143q0 14 -4 32.5t-17.5 45t-35 47t-61.5 35t-91 12.5h-143v223h143q44 -1 76.5 16.5t47.5 44t21.5 48.5t6.5 39q0 48 -27.5 93.5t-91.5 57.5q-130 17 -207 -82l-196 129
q58 97 167 151.5t238 47.5q170 -9 278.5 -116.5t108.5 -258.5q0 -81 -45.5 -150t-120.5 -112q104 -39 169.5 -147.5t54.5 -217.5q-12 -119 -86 -210t-187 -135t-243 -35q-136 9 -248.5 86.5t-167.5 195.5z" />
    <glyph glyph-name="four" unicode="4" horiz-adv-x="1226" 
d="M45 291l668 1048h243v-829h179v-219h-179v-291h-249v291h-662zM410 510h297v467z" />
    <glyph glyph-name="five" unicode="5" horiz-adv-x="1191" 
d="M92 262q9 5 105.5 65.5t105.5 65.5q40 -74 110 -120t144 -46q129 0 207 68t78 164q0 112 -72.5 171.5t-185.5 59.5q-183 0 -308 -135l-143 86l113 698h762v-231h-562l-47 -274q39 34 109 52.5t139 18.5q92 0 172.5 -29t141.5 -84t96 -141t35 -192q0 -214 -146.5 -346.5
t-388.5 -132.5q-140 0 -267.5 77.5t-197.5 204.5z" />
    <glyph glyph-name="six" unicode="6" horiz-adv-x="1173" 
d="M127 444q-7 82 -7 160t6.5 161t23.5 156.5t43.5 143t68.5 124.5t95.5 95.5t127.5 61.5t162 18q64 -2 117 -14.5t107 -40.5t100 -79.5t80 -125.5l-232 -98q-60 122 -180 122q-70 0 -123.5 -34.5t-84 -93.5t-44 -132t-8.5 -155q21 57 96 104t174 47q168 0 291.5 -125
t122.5 -329q-3 -190 -136 -310.5t-339 -119.5q-187 3 -315.5 129t-145.5 335zM399 430q0 -86 59 -146.5t142 -60.5q85 -2 144.5 56.5t60.5 144.5q2 85 -55.5 145.5t-141.5 61.5q-85 2 -146.5 -57t-62.5 -144z" />
    <glyph glyph-name="seven" unicode="7" horiz-adv-x="1107" 
d="M98 1104v235h981l-641 -1339h-286l530 1104h-584z" />
    <glyph glyph-name="eight" unicode="8" horiz-adv-x="1196" 
d="M104 434q0 108 52.5 195t144.5 141q-98 95 -98 229q0 151 115 258t280 107q164 0 279.5 -107t115.5 -258q0 -136 -100 -229q92 -53 144.5 -141t52.5 -195q0 -124 -66 -228.5t-179 -165t-247 -60.5q-135 0 -248.5 60.5t-179.5 165t-66 228.5zM354 442q0 -92 72 -158.5
t172 -66.5q98 0 170 66.5t72 158.5q0 87 -67.5 154.5t-160.5 67.5h-37q-92 0 -156.5 -67.5t-64.5 -154.5zM446 991q0 -61 42 -103t112 -42q68 0 108 42.5t40 102.5q0 56 -41.5 97.5t-108.5 41.5t-109.5 -41.5t-42.5 -97.5z" />
    <glyph glyph-name="nine" unicode="9" horiz-adv-x="1175" 
d="M113 934q3 190 135.5 310.5t337.5 117.5q189 -3 316.5 -128t146.5 -335q5 -90 7 -183t-11.5 -184.5t-34.5 -174.5t-63.5 -153.5t-98 -121.5t-137.5 -78t-183 -24q-64 2 -117 14.5t-107 40.5t-99.5 79.5t-79.5 125.5l231 98q60 -123 181 -123q92 0 154.5 60t87 152
t18.5 204q-21 -58 -97 -105t-176 -47q-166 0 -289 125.5t-122 329.5zM371 920q-3 -85 54 -145.5t142 -61.5q85 -2 146.5 56t62.5 142q0 87 -58.5 147t-142.5 62q-84 1 -143 -57t-61 -143z" />
    <glyph glyph-name="colon" unicode=":" horiz-adv-x="581" 
d="M129 135q0 67 47.5 111.5t114.5 44.5t114.5 -44.5t47.5 -111.5t-47.5 -111t-114.5 -44t-114.5 44t-47.5 111zM129 821q0 67 47.5 111.5t114.5 44.5t114.5 -44.5t47.5 -111.5t-47.5 -111t-114.5 -44t-114.5 44t-47.5 111z" />
    <glyph glyph-name="semicolon" unicode=";" horiz-adv-x="595" 
d="M23 -209q70 94 112 226.5t41 275.5h260q-3 -106 -27.5 -201.5t-62.5 -164.5t-75.5 -116.5t-77.5 -80.5zM150 821q0 67 47 111.5t114 44.5t114.5 -44.5t47.5 -111.5t-47.5 -111t-114.5 -44t-114 44t-47 111z" />
    <glyph glyph-name="less" unicode="&#x3c;" horiz-adv-x="1286" 
d="M94 485v213l1032 394v-215l-755 -285l755 -285v-215z" />
    <glyph glyph-name="equal" unicode="=" horiz-adv-x="1228" 
d="M143 276v193h942v-193h-942zM143 684v193h942v-193h-942z" />
    <glyph glyph-name="greater" unicode="&#x3e;" horiz-adv-x="1286" 
d="M160 92v215l755 285l-755 285v215l1032 -394v-213z" />
    <glyph glyph-name="question" unicode="?" horiz-adv-x="1005" 
d="M80 999q0 194 118 311t304 117q187 0 307.5 -109t120.5 -290q0 -144 -79 -246.5t-204 -140.5q-64 -21 -91.5 -57t-27.5 -107l-4 -67h-243l-5 67q0 65 8 114.5t27.5 87.5t42.5 65.5t62.5 53.5t78.5 46t98 49l3 1.5t3 1t3 1.5q78 33 78 133q0 64 -52 106t-126 42
q-75 0 -124.5 -49.5t-49.5 -129.5h-248zM244 137q0 65 47.5 110.5t114.5 45.5q66 0 113.5 -45t47.5 -111q0 -68 -47 -112.5t-114 -44.5t-114.5 44.5t-47.5 112.5z" />
    <glyph glyph-name="at" unicode="@" horiz-adv-x="1980" 
d="M96 522q0 184 69 350.5t186.5 287.5t282 192t347.5 71q185 0 354.5 -66t295 -179.5t200 -275t74.5 -343.5q0 -77 -12.5 -155t-42.5 -158t-74 -141.5t-113 -100.5t-154 -39q-61 0 -112.5 16t-95 50.5t-68.5 96t-25 144.5v260q0 105 -72.5 176.5t-174.5 71.5t-175 -71.5
t-73 -176.5q0 -101 73 -172t175 -71q94 0 176 67v-186q-86 -49 -176 -49q-172 0 -294 120t-122 291q0 174 122 295t294 121q166 0 288 -112q123 -113 129 -283v-293q0 -70 38 -98.5t93 -28.5q53 0 94 29.5t64.5 74t39 104t21 112.5t5.5 106q0 196 -103 356t-275 249t-374 89
q-148 0 -281 -58t-228 -156t-150.5 -233t-55.5 -284t55.5 -282.5t150.5 -229.5t227.5 -152.5t281.5 -56.5h59v-170h-59q-184 0 -348 69.5t-281.5 188.5t-186.5 284t-69 349z" />
    <glyph glyph-name="A" unicode="A" horiz-adv-x="1339" 
d="M0 0l528 1411h283l528 -1411h-276l-129 342h-526l-129 -342h-279zM496 571h352l-178 539z" />
    <glyph glyph-name="B" unicode="B" horiz-adv-x="1298" 
d="M176 0v1411h553q186 0 296 -103t110 -280q0 -87 -44.5 -162t-142.5 -112q83 -20 145 -77t89.5 -122.5t27.5 -130.5q0 -178 -119.5 -301t-318.5 -123h-596zM438 233h320q82 0 130 58.5t48 136.5q0 76 -49.5 136.5t-134.5 60.5h-314v-392zM438 844h273q69 0 110 48.5
t41 121.5q0 76 -42 120t-118 44h-264v-334z" />
    <glyph glyph-name="C" unicode="C" horiz-adv-x="1419" 
d="M90 702q0 198 93.5 364.5t257 263.5t360.5 97q177 0 325 -74t242 -204l-209 -150q-64 83 -156.5 132t-201.5 49q-126 0 -229 -64t-161.5 -173.5t-58.5 -240.5q0 -130 58.5 -238.5t161.5 -172.5t229 -64q112 0 207.5 51.5t158.5 139.5l207 -152q-94 -133 -243.5 -209.5
t-329.5 -76.5q-197 0 -360.5 97t-257 263t-93.5 362z" />
    <glyph glyph-name="D" unicode="D" horiz-adv-x="1462" 
d="M176 0v1411h551q148 0 269 -54.5t201 -150t123.5 -224.5t43.5 -280q0 -150 -43.5 -278t-123.5 -222.5t-201 -148t-269 -53.5h-551zM438 240h289q121 0 207.5 63.5t127 166t40.5 232.5q0 131 -40.5 235.5t-127 169t-207.5 64.5h-289v-931z" />
    <glyph glyph-name="E" unicode="E" horiz-adv-x="1171" 
d="M176 0v1411h873v-233h-613v-367h537v-231h-537v-347h633v-233h-893z" />
    <glyph glyph-name="F" unicode="F" horiz-adv-x="1093" 
d="M176 0v1411h862v-233h-600v-367h475v-233h-475v-578h-262z" />
    <glyph glyph-name="G" unicode="G" horiz-adv-x="1548" 
d="M90 702q0 198 95 364.5t260.5 263.5t363.5 97q152 0 285 -57t227 -158l-193 -168q-135 138 -319 138q-192 0 -324.5 -140.5t-132.5 -339.5q0 -130 60 -240t165.5 -175.5t231.5 -65.5q95 0 180.5 35t141.5 103t59 155h-387v215h688q0 -190 -49 -334t-140 -234.5
t-215 -135.5t-278 -45q-148 0 -282 57.5t-229.5 154.5t-151.5 230t-56 280z" />
    <glyph glyph-name="H" unicode="H" horiz-adv-x="1441" 
d="M176 0v1411h260v-592h565v592h265v-1411h-265v584h-565v-584h-260z" />
    <glyph glyph-name="I" unicode="I" horiz-adv-x="612" 
d="M176 0v1411h260v-1411h-260z" />
    <glyph glyph-name="J" unicode="J" horiz-adv-x="614" 
d="M-203 -446l25 237q61 -20 164 -20q97 0 143.5 62t46.5 161v1417h262v-1417q0 -79 -15 -147.5t-49.5 -128.5t-86 -103t-128.5 -67.5t-173 -24.5q-61 0 -189 31z" />
    <glyph glyph-name="K" unicode="K" horiz-adv-x="1224" 
d="M176 0v1411h264v-514l379 514h307l-536 -700l663 -711h-342l-471 522v-522h-264z" />
    <glyph glyph-name="L" unicode="L" horiz-adv-x="1036" 
d="M176 0v1411h262v-1178h545v-233h-807z" />
    <glyph glyph-name="M" unicode="M" horiz-adv-x="1882" 
d="M94 0l174 1411h221l451 -954l449 954h225l172 -1411h-262l-109 940l-368 -780h-209l-371 780l-111 -940h-262z" />
    <glyph glyph-name="N" unicode="N" horiz-adv-x="1396" 
d="M176 0v1411h244l538 -917v917h263v-1411h-240l-545 928v-928h-260z" />
    <glyph glyph-name="O" unicode="O" horiz-adv-x="1611" 
d="M90 702q0 198 94.5 364.5t259 263.5t361.5 97t362 -97t260 -263.5t95 -364.5q0 -196 -95 -362t-260 -263t-362 -97t-361.5 97t-259 263t-94.5 362zM350 702q0 -194 132 -329t323 -135q190 0 322.5 135t132.5 329t-132.5 330.5t-322.5 136.5q-191 0 -323 -136.5
t-132 -330.5z" />
    <glyph glyph-name="P" unicode="P" horiz-adv-x="1253" 
d="M176 0v1411h574q91 0 166.5 -25.5t127 -69t87 -102.5t51.5 -124.5t16 -135.5t-16 -135t-51.5 -123t-87 -101t-127 -68t-166.5 -25h-312v-502h-262zM438 735h299q95 0 147 66.5t52 152.5t-50 155t-141 69h-307v-443z" />
    <glyph glyph-name="Q" unicode="Q" horiz-adv-x="1622" 
d="M90 702q0 198 95 364.5t260.5 263.5t363.5 97q200 0 366.5 -97t261.5 -263.5t95 -364.5q0 -183 -85.5 -341.5t-232.5 -258.5l140 -227l-189 -115l-153 248q-103 -28 -203 -28q-148 0 -282 57.5t-229.5 154.5t-151.5 230t-56 280zM352 702q0 -177 108.5 -306t276.5 -154
q59 -11 133 -4l-122 204l188 113l143 -233q89 64 139 163t50 217q0 130 -60.5 240t-166 174t-232.5 64t-232 -64t-165 -174t-60 -240z" />
    <glyph glyph-name="R" unicode="R" horiz-adv-x="1292" 
d="M176 0v1411h565q112 0 201 -39t142 -104.5t80.5 -145.5t27.5 -168q0 -78 -21.5 -149.5t-63.5 -132t-112 -103t-161 -57.5l360 -512h-315l-332 502h-109v-502h-262zM438 735h283q96 0 147.5 66t51.5 153q0 86 -50 155t-141 69h-291v-443z" />
    <glyph glyph-name="S" unicode="S" horiz-adv-x="1181" 
d="M94 412h262q3 -81 69 -140t175 -59q103 0 166 48t68 122q4 70 -44 117t-151 75l-174 46q-356 104 -356 393q0 121 64.5 216t172.5 146t238 51q204 0 336.5 -116t132.5 -310h-262q0 84 -57 134.5t-154 50.5q-90 0 -150.5 -46t-60.5 -120q0 -117 168 -162l174 -51
q114 -31 194 -79.5t121.5 -106.5t58 -118t11.5 -126q-6 -123 -76 -215.5t-179.5 -138.5t-240.5 -46q-222 0 -364 125.5t-142 309.5z" />
    <glyph glyph-name="T" unicode="T" horiz-adv-x="1173" 
d="M57 1171v240h1059v-240h-397v-1171h-264v1171h-398z" />
    <glyph glyph-name="U" unicode="U" horiz-adv-x="1394" 
d="M162 498v913h266v-913q0 -120 79.5 -195.5t190.5 -75.5t192 76t81 195v913h262v-913q0 -115 -43.5 -213.5t-116.5 -164.5t-170.5 -103t-204.5 -37t-204.5 37t-171 103t-117 164.5t-43.5 213.5z" />
    <glyph glyph-name="V" unicode="V" horiz-adv-x="1177" 
d="M41 1411h272l275 -983l274 983h273l-428 -1411h-236z" />
    <glyph glyph-name="W" unicode="W" horiz-adv-x="1826" 
d="M10 1411h283l301 -983l215 786h209l213 -786l303 983h285l-480 -1411h-211l-217 801l-213 -801h-213z" />
    <glyph glyph-name="X" unicode="X" horiz-adv-x="1316" 
d="M12 0l490 754l-443 657h314l284 -448l285 448h313l-442 -657l492 -754h-312l-336 543l-335 -543h-310z" />
    <glyph glyph-name="Y" unicode="Y" horiz-adv-x="1318" 
d="M-16 1411h311l362 -543l367 543h313l-544 -772v-639h-269v643z" />
    <glyph glyph-name="Z" unicode="Z" horiz-adv-x="1202" 
d="M86 0v205l680 971h-653v235h991v-207l-686 -968h686v-236h-1018z" />
    <glyph glyph-name="bracketleft" unicode="[" horiz-adv-x="679" 
d="M156 -465v1876h450v-194h-229v-1485h229v-197h-450z" />
    <glyph glyph-name="backslash" unicode="\" horiz-adv-x="1026" 
d="M61 1411h220l684 -1411h-220z" />
    <glyph glyph-name="bracketright" unicode="]" horiz-adv-x="679" 
d="M74 -268h229v1485h-229v194h450v-1876h-450v197z" />
    <glyph glyph-name="underscore" unicode="_" horiz-adv-x="1490" 
d="M129 -63h1233v-191h-1233v191z" />
    <glyph glyph-name="grave" unicode="`" horiz-adv-x="1103" 
d="M264 1448h262l215 -334h-194z" />
    <glyph glyph-name="a" unicode="a" horiz-adv-x="1257" 
d="M82 479q0 112 40.5 207t108.5 158t155.5 98t182.5 35q79 0 164 -33.5t133 -105.5v118h250v-956h-250v123q-42 -68 -129.5 -104.5t-167.5 -36.5q-127 0 -237.5 59.5t-180 175t-69.5 262.5zM340 479q0 -112 79 -185t185 -73q107 0 184.5 70t77.5 188t-78.5 188t-183.5 70
q-107 0 -185.5 -72.5t-78.5 -185.5z" />
    <glyph glyph-name="b" unicode="b" horiz-adv-x="1241" 
d="M141 0v1477h250v-648q37 70 119 109t180 39q94 0 179.5 -35.5t149.5 -99.5t102 -159t38 -206t-38 -205t-102.5 -157.5t-149.5 -99t-179 -35.5q-97 0 -179.5 39.5t-119.5 109.5v-129h-250zM395 481q0 -116 74.5 -189t179.5 -73q107 0 179.5 73t72.5 189q0 115 -72.5 186.5
t-179.5 71.5q-103 0 -178.5 -70.5t-75.5 -187.5z" />
    <glyph glyph-name="c" unicode="c" horiz-adv-x="1064" 
d="M80 481q0 110 42 204t113 157.5t164.5 99t196.5 35.5q121 0 225.5 -48.5t171.5 -137.5l-198 -150q-33 45 -86 69.5t-113 24.5q-109 0 -188.5 -70.5t-79.5 -183.5q0 -114 80 -188t188 -74q59 0 112.5 25.5t86.5 70.5l200 -147q-67 -89 -172 -138.5t-227 -49.5
q-137 0 -254.5 61.5t-189.5 177.5t-72 262z" />
    <glyph glyph-name="d" unicode="d" horiz-adv-x="1241" 
d="M82 477q0 111 38 206t102 159t149.5 99.5t179.5 35.5q98 0 180 -39t121 -109v648h248v-1477h-248v129q-39 -70 -121.5 -109.5t-179.5 -39.5q-94 0 -179 35.5t-149.5 99t-102.5 157.5t-38 205zM340 481q0 -116 72.5 -189t179.5 -73q106 0 181 72.5t75 189.5t-76.5 187.5
t-179.5 70.5q-107 0 -179.5 -71.5t-72.5 -186.5z" />
    <glyph glyph-name="e" unicode="e" horiz-adv-x="1132" 
d="M82 481q0 147 67.5 261t180 174.5t248.5 60.5q208 0 346.5 -137t138.5 -359q0 -40 -4 -86h-729q12 -94 84.5 -149.5t179.5 -55.5q76 0 142 32t98 91q34 -19 103 -56t87 -46q-61 -116 -182 -173.5t-264 -57.5q-136 0 -248.5 61.5t-180 177t-67.5 262.5zM328 565h491
q-13 96 -78.5 149.5t-160.5 53.5q-100 0 -169.5 -54t-82.5 -149z" />
    <glyph glyph-name="f" unicode="f" horiz-adv-x="731" 
d="M47 756v200h182v76q0 212 104.5 328.5t303.5 116.5h104v-240h-104q-156 0 -156 -205v-76h203v-200h-203v-756h-252v756h-182z" />
    <glyph glyph-name="g" unicode="g" horiz-adv-x="1251" 
d="M82 475q0 148 68 264.5t176.5 177t234.5 60.5q97 0 181.5 -40t123.5 -110v129h244v-819q0 -311 -139 -462.5t-396 -151.5q-149 0 -271 75.5t-185 206.5q28 14 102 52t101 51q30 -69 103 -113.5t150 -44.5q71 0 124.5 20.5t86.5 55.5t53 84.5t25.5 103.5t1.5 117
q-36 -70 -122 -110.5t-183 -40.5q-126 0 -234.5 60t-176.5 174.5t-68 260.5zM342 479q0 -117 75 -189.5t183 -72.5q102 0 181 73t79 189q0 119 -76 188.5t-184 69.5q-107 0 -182.5 -72.5t-75.5 -185.5z" />
    <glyph glyph-name="h" unicode="h" horiz-adv-x="1202" 
d="M141 0v1477h250v-668q31 80 122 124t175 44q185 0 285 -116.5t100 -328.5v-532h-250v520q0 98 -60 155.5t-142 57.5q-42 0 -80.5 -12t-73 -37t-55.5 -70t-21 -104v-510h-250z" />
    <glyph glyph-name="i" unicode="i" horiz-adv-x="530" 
d="M104 1327q0 63 48 106.5t114 43.5q65 0 111.5 -43.5t46.5 -106.5q0 -64 -46.5 -107.5t-111.5 -43.5q-67 0 -114.5 43.5t-47.5 107.5zM141 0v956h248v-956h-248z" />
    <glyph glyph-name="j" unicode="j" horiz-adv-x="534" 
d="M-121 -248h121q145 0 141 180v1024h252v-1019q0 -198 -83 -306t-273 -108h-158v229zM106 1327q0 62 47.5 106t112.5 44q67 0 113.5 -43.5t46.5 -106.5q0 -64 -46 -107.5t-114 -43.5q-65 0 -112.5 43.5t-47.5 107.5z" />
    <glyph glyph-name="k" unicode="k" horiz-adv-x="1062" 
d="M141 0v1477h248v-807l264 286h324l-402 -419l488 -537h-313l-361 410v-410h-248z" />
    <glyph glyph-name="l" unicode="l" horiz-adv-x="532" 
d="M141 0v1477h250v-1477h-250z" />
    <glyph glyph-name="m" unicode="m" horiz-adv-x="1769" 
d="M141 0v956h250v-141q25 55 75 93t100.5 52.5t99.5 14.5q230 -12 305 -178q103 180 301 180q175 0 271.5 -110.5t96.5 -319.5v-547h-247v520q0 100 -51 156.5t-130 56.5q-87 0 -140.5 -58.5t-53.5 -164.5v-510h-250v526q-1 97 -50.5 152t-125.5 55q-86 0 -143.5 -54.5
t-57.5 -168.5v-510h-250z" />
    <glyph glyph-name="n" unicode="n" 
d="M141 0v956h250v-141q39 74 119 118t166 44q169 0 262.5 -106t93.5 -306v-565h-250v520q0 102 -49 157.5t-133 55.5q-93 0 -151 -53t-58 -170v-510h-250z" />
    <glyph glyph-name="o" unicode="o" horiz-adv-x="1159" 
d="M82 481q0 147 68 261t181 174.5t249 60.5q135 0 248 -60.5t181 -175t68 -260.5t-68 -261.5t-181 -176.5t-248 -61q-136 0 -249 61t-181 176t-68 262zM330 481q0 -114 72 -185t178 -71q105 0 177 71t72 185q0 112 -72 181t-177 69t-177.5 -69.5t-72.5 -180.5z" />
    <glyph glyph-name="p" unicode="p" horiz-adv-x="1239" 
d="M141 -465v1421h250v-129q38 69 120.5 109.5t178.5 40.5q93 0 178 -36t149 -99.5t102 -158t38 -204.5q0 -111 -38 -206t-102 -158.5t-148.5 -99t-178.5 -35.5q-97 0 -179.5 38.5t-119.5 108.5v-592h-250zM395 475q0 -119 75 -188.5t179 -69.5q106 0 179 72t73 186
q0 116 -73.5 189t-178.5 73q-106 0 -180 -72.5t-74 -189.5z" />
    <glyph glyph-name="q" unicode="q" horiz-adv-x="1239" 
d="M82 479q0 110 38 204.5t102 158t149 99.5t178 36q96 0 178.5 -40.5t120.5 -109.5v129h250v-1421h-250v592q-37 -70 -119.5 -108.5t-179.5 -38.5q-94 0 -178.5 35.5t-148.5 99t-102 158.5t-38 206zM340 475q0 -114 72.5 -186t177.5 -72q103 0 178.5 69.5t75.5 188.5
q0 117 -74 189.5t-180 72.5q-105 0 -177.5 -73t-72.5 -189z" />
    <glyph glyph-name="r" unicode="r" horiz-adv-x="841" 
d="M141 0v956h250v-225q35 123 109 184.5t162 61.5q89 0 157 -35l-43 -225q-57 26 -145 26q-240 0 -240 -405v-338h-250z" />
    <glyph glyph-name="s" unicode="s" horiz-adv-x="929" 
d="M74 301h233q5 -52 56.5 -88t119.5 -33q53 2 89 28.5t36 67.5q3 67 -104 91l-131 32q-72 20 -123.5 46.5t-79.5 53t-44 61.5t-20 64t-4 68q0 115 105 200t248 85q71 0 133.5 -17t116.5 -51t86.5 -94t35.5 -139h-237q-3 49 -42 73.5t-87 24.5q-52 0 -86.5 -22t-34.5 -72
q0 -28 28 -48.5t72 -31.5l160 -39q63 -16 110.5 -44.5t73.5 -59t41.5 -66.5t20 -63t4.5 -54q0 -93 -57 -161.5t-144 -100.5t-190 -32q-151 0 -266.5 87t-118.5 234z" />
    <glyph glyph-name="t" unicode="t" horiz-adv-x="718" 
d="M47 756v200h174v365h248v-365h203v-200h-203v-756h-248v756h-174z" />
    <glyph glyph-name="u" unicode="u" 
d="M129 391v565h252v-520q0 -108 53.5 -160.5t128.5 -52.5q88 0 147.5 54t59.5 169v510h250v-956h-250v135q-38 -73 -112.5 -114t-151.5 -41q-173 0 -275 106.5t-102 304.5z" />
    <glyph glyph-name="v" unicode="v" horiz-adv-x="1060" 
d="M18 956h267l245 -637l246 637h268l-403 -956h-221z" />
    <glyph glyph-name="w" unicode="w" horiz-adv-x="1585" 
d="M25 956h266l194 -604l193 604h221l195 -604l194 604h266l-342 -956h-208l-213 641l-207 -641h-207z" />
    <glyph glyph-name="x" unicode="x" horiz-adv-x="1064" 
d="M14 0l377 520l-313 436h293l164 -235l159 235h293l-313 -436l375 -520h-291l-226 319l-227 -319h-291z" />
    <glyph glyph-name="y" unicode="y" horiz-adv-x="1046" 
d="M18 956h267l237 -596l240 596h266l-592 -1423h-264l219 541z" />
    <glyph glyph-name="z" unicode="z" horiz-adv-x="1040" 
d="M84 0v190l494 533h-463v233h825v-192l-502 -531h502v-233h-856z" />
    <glyph glyph-name="braceleft" unicode="{" horiz-adv-x="833" 
d="M70 389v170q48 0 86.5 32.5t38.5 82.5v332q0 182 118 293.5t291 111.5h160v-192h-166q-77 0 -131.5 -56.5t-54.5 -140.5v-313q0 -85 -39.5 -148.5t-100.5 -87.5q60 -23 100 -86.5t40 -146.5v-301q0 -84 55 -145.5t131 -61.5h166v-197h-160q-173 0 -291 112t-118 294v335
q0 49 -38.5 81t-86.5 32z" />
    <glyph glyph-name="bar" unicode="|" horiz-adv-x="452" 
d="M156 -250v1888h141v-1888h-141z" />
    <glyph glyph-name="braceright" unicode="}" horiz-adv-x="833" 
d="M70 -268h166q76 0 131 61.5t55 145.5v301q0 83 40 146.5t99 86.5q-61 24 -100 87.5t-39 148.5v313q0 84 -54.5 140.5t-131.5 56.5h-166v192h159q173 0 291.5 -111.5t118.5 -293.5v-332q0 -50 38.5 -82.5t86.5 -32.5v-170q-48 0 -86.5 -32t-38.5 -81v-335
q0 -182 -118.5 -294t-291.5 -112h-159v197z" />
    <glyph glyph-name="exclamdown" unicode="&#xa1;" horiz-adv-x="542" 
d="M109 821q0 67 46.5 111.5t112.5 44.5q68 0 116 -44.5t48 -111.5t-48 -111t-116 -44q-66 0 -112.5 44.5t-46.5 110.5zM125 -465l39 1010h215l39 -1010h-293z" />
    <glyph glyph-name="cent" unicode="&#xa2;" horiz-adv-x="1095" 
d="M88 481q0 192 119.5 324t300.5 164v219h141v-213q107 -9 199 -57t153 -127l-198 -150q-33 45 -86 69.5t-113 24.5q-109 0 -188.5 -70.5t-79.5 -183.5q0 -114 80 -188t188 -74q59 0 112.5 25.5t86.5 70.5l201 -147q-63 -81 -155 -129t-200 -57v-232h-141v238
q-181 32 -300.5 165.5t-119.5 327.5z" />
    <glyph glyph-name="sterling" unicode="&#xa3;" horiz-adv-x="1357" 
d="M88 0v229h209v349h-166v127h166v258q0 212 117.5 338t312.5 126q91 0 170.5 -28t140.5 -82.5t96 -142t35 -197.5h-256q0 100 -53.5 145.5t-136.5 42.5q-76 -2 -126 -50.5t-50 -125.5v-284h262v-127h-262v-349h389q34 0 58 15t24 49v80h248v-111q0 -111 -67.5 -186.5
t-170.5 -75.5h-940z" />
    <glyph glyph-name="currency" unicode="&#xa4;" horiz-adv-x="1265" 
d="M137 330l146 147q-64 94 -64 217q0 122 66 219l-148 148l131 131l148 -148q100 64 217 64q125 0 219 -64l145 148l131 -131l-145 -148q64 -108 64 -219q0 -126 -64 -217l145 -147l-131 -131l-145 147q-95 -65 -219 -65t-219 65l-146 -147zM444 694q0 -78 55.5 -133
t133.5 -55q79 0 134.5 55t55.5 133q0 80 -55.5 135.5t-134.5 55.5q-78 0 -133.5 -56t-55.5 -135z" />
    <glyph glyph-name="yen" unicode="&#xa5;" horiz-adv-x="1480" 
d="M63 1411h312l362 -543l367 543h313l-532 -752h325v-137h-338v-180h338v-135h-338v-207h-268v207h-336v135h336v180h-336v137h324z" />
    <glyph glyph-name="brokenbar" unicode="&#xa6;" horiz-adv-x="460" 
d="M160 -250v789h141v-789h-141zM160 850v788h141v-788h-141z" />
    <glyph glyph-name="section" unicode="&#xa7;" horiz-adv-x="1089" 
d="M125 -47l215 65q25 -79 79.5 -117t121.5 -38q82 0 139 52.5t57 139.5v385q0 90 -58.5 140.5t-146.5 50.5q-37 0 -90 -13v226q57 14 99 14q177 0 300.5 -115.5t123.5 -302.5v-385q0 -187 -123.5 -302t-300.5 -115q-93 0 -176.5 34t-149 107t-90.5 174zM125 614v385
q0 187 123.5 302.5t300.5 115.5q93 0 176.5 -34t149 -107t90.5 -174l-215 -66q-25 79 -79.5 117.5t-121.5 38.5q-82 0 -139.5 -53t-57.5 -140v-385q0 -90 58.5 -140t146.5 -50q41 0 90 12v-225q-57 -14 -98 -14q-177 0 -300.5 115t-123.5 302z" />
    <glyph glyph-name="dieresis" unicode="&#xa8;" horiz-adv-x="1128" 
d="M246 1294q0 57 41 95t100 38q58 0 98.5 -38.5t40.5 -94.5t-40.5 -94.5t-98.5 -38.5q-59 0 -100 38t-41 95zM602 1294q0 57 41 95t100 38t99.5 -38t40.5 -95t-40.5 -95t-99.5 -38t-100 38t-41 95z" />
    <glyph glyph-name="copyright" unicode="&#xa9;" horiz-adv-x="1640" 
d="M104 702q0 147 56 281t151.5 231.5t228 155t279.5 57.5t280 -57.5t228.5 -155t152 -231.5t56.5 -281q0 -196 -95.5 -362.5t-260.5 -263t-361 -96.5q-147 0 -279.5 57t-228 154t-151.5 230.5t-56 280.5zM229 702q0 -122 46 -232t124.5 -190t188 -127t231.5 -47t231.5 47
t188 127t124.5 190t46 232t-46 232.5t-124.5 190.5t-188.5 127.5t-231 47.5t-231 -47.5t-188.5 -127.5t-124.5 -190.5t-46 -232.5zM457 692q0 154 106.5 261.5t261.5 107.5q152 0 281 -135l-94 -97q-43 43 -93 69t-94 26q-96 0 -162.5 -68t-66.5 -164q0 -97 66.5 -165
t162.5 -68q93 0 191 98l92 -102q-60 -63 -134 -98t-149 -35q-155 0 -261.5 108t-106.5 262z" />
    <glyph glyph-name="ordfeminine" unicode="&#xaa;" horiz-adv-x="976" 
d="M106 1001q0 157 100.5 255t244.5 98q66 0 124 -27t95 -80v92h145v-675h-145v94q-35 -50 -95.5 -79.5t-123.5 -29.5q-144 0 -244.5 97.5t-100.5 254.5zM166 416v127h645v-127h-645zM258 1004q0 -91 58.5 -150t144.5 -59q87 0 148 56.5t61 152.5q0 94 -63.5 149t-145.5 55
q-86 0 -144.5 -56.5t-58.5 -147.5z" />
    <glyph glyph-name="guillemotleft" unicode="&#xab;" horiz-adv-x="1021" 
d="M84 477l283 424h200l-282 -424l282 -424h-200zM446 477l283 424h201l-283 -424l283 -424h-201z" />
    <glyph glyph-name="logicalnot" unicode="&#xac;" horiz-adv-x="1296" 
d="M143 532v222h998v-531h-223v309h-775z" />
    <glyph glyph-name="registered" unicode="&#xae;" horiz-adv-x="1640" 
d="M104 702q0 147 56 281t151.5 231.5t228 155t279.5 57.5t280 -57.5t228.5 -155t152 -231.5t56.5 -281q0 -196 -95.5 -362.5t-260.5 -263t-361 -96.5q-147 0 -279.5 57t-228 154t-151.5 230.5t-56 280.5zM229 702q0 -122 46 -232t124.5 -190t188 -127t231.5 -47t231.5 47
t188 127t124.5 190t46 232t-46 232.5t-124.5 190.5t-188.5 127.5t-231 47.5t-231 -47.5t-188.5 -127.5t-124.5 -190.5t-46 -232.5zM573 338v723h281q112 0 172.5 -70.5t60.5 -167.5q0 -80 -39 -142t-118 -83l184 -260h-172l-180 250h-47v-250h-142zM715 727h135
q45 0 71.5 28.5t26.5 67.5q0 40 -26 69.5t-68 29.5h-139v-195z" />
    <glyph glyph-name="macron" unicode="&#xaf;" horiz-adv-x="1042" 
d="M246 1198v170h551v-170h-551z" />
    <glyph glyph-name="degree" unicode="&#xb0;" horiz-adv-x="763" 
d="M96 1143q0 117 84 200.5t201 83.5q118 0 202.5 -83.5t84.5 -200.5q0 -119 -84 -203t-203 -84q-117 0 -201 84.5t-84 202.5zM242 1143q0 -60 41 -101t98 -41q60 0 100.5 41t40.5 101q0 59 -40.5 99t-100.5 40q-57 0 -98 -40.5t-41 -98.5z" />
    <glyph glyph-name="plusminus" unicode="&#xb1;" horiz-adv-x="1118" 
d="M141 -2v195h836v-195h-836zM141 588v196h318v291h198v-291h320v-196h-320v-295h-198v295h-318z" />
    <glyph glyph-name="uni00B2" unicode="&#xb2;" horiz-adv-x="649" 
d="M59 1454q19 106 91 169t176 63q106 0 180 -67t74 -171q0 -107 -84 -201q-168 -190 -191 -217h262v-143h-504v76l322 383q45 55 45 102q0 42 -30.5 68t-80.5 26q-47 0 -80.5 -32t-41.5 -85z" />
    <glyph glyph-name="uni00B3" unicode="&#xb3;" horiz-adv-x="655" 
d="M41 1040q102 51 127 66q19 -35 54 -59.5t75 -28.5q52 -3 91 27.5t42 72.5q1 25 -6.5 49.5t-37.5 47.5t-79 22h-86v129h86q51 0 72.5 35.5t17.5 66.5q-2 31 -26.5 55.5t-63.5 24.5q-65 3 -104 -53q-4 4 -56.5 38t-56.5 38q34 56 98 87.5t140 27.5q99 -6 163 -70t64 -150
q0 -46 -27 -88t-71 -67q62 -23 99.5 -85t31.5 -126q-9 -101 -97.5 -166t-203.5 -57q-81 6 -147 50.5t-99 112.5z" />
    <glyph glyph-name="acute" unicode="&#xb4;" horiz-adv-x="1103" 
d="M264 1114l215 334h262l-282 -334h-195z" />
    <glyph glyph-name="uni00B5" unicode="&#xb5;" 
d="M156 -365v1321h250v-524q0 -105 52 -157t124 -52q87 0 146.5 54.5t59.5 168.5v510h250v-956h-250v127q-38 -69 -110.5 -108t-145.5 -39q-98 0 -161 57l18 -258v-144h-233z" />
    <glyph glyph-name="paragraph" unicode="&#xb6;" horiz-adv-x="1417" 
d="M70 967q0 185 129 314.5t315 129.5h176v-1438v-14.5v-14t-0.5 -12t-1.5 -11.5l-3 -9t-5 -8.5t-7.5 -6t-11 -5t-14.5 -2.5t-18 -1h-135v633q-176 11 -300 139.5t-124 305.5zM492 -225h223q41 0 70.5 28t29.5 66v1542h248q116 0 198 -83.5t82 -197.5v-174h-184v162
q0 41 -27 70t-65 29h-59v-1338q0 -106 -85.5 -192.5t-195.5 -87.5h-57h-178v176z" />
    <glyph glyph-name="periodcentered" unicode="&#xb7;" horiz-adv-x="569" 
d="M123 641q0 66 47 111t113 45q68 0 115.5 -44.5t47.5 -111.5t-47.5 -111.5t-115.5 -44.5q-66 0 -113 45t-47 111z" />
    <glyph glyph-name="cedilla" unicode="&#xb8;" horiz-adv-x="1081" 
d="M332 -190l141 -9q0 -26 10 -51q10 -26 35 -37.5t53 -3.5q27 10 36 37.5t-1 56.5l-94 256h121l104 -192q19 -35 19 -94q0 -83 -63 -146t-152 -63q-87 0 -148.5 66.5t-60.5 179.5z" />
    <glyph glyph-name="uni00B9" unicode="&#xb9;" horiz-adv-x="434" 
d="M45 1407v133l285 143v-796h-150v581z" />
    <glyph glyph-name="ordmasculine" unicode="&#xba;" horiz-adv-x="950" 
d="M115 1006q0 155 102.5 251.5t251.5 96.5q147 0 250.5 -97t103.5 -251q0 -158 -103.5 -257.5t-250.5 -99.5q-149 0 -251.5 99t-102.5 258zM152 416v127h655v-127h-655zM262 1006q0 -94 60 -152.5t147 -58.5t147 58.5t60 152.5q0 90 -60 146t-147 56t-147 -56t-60 -146z
" />
    <glyph glyph-name="guillemotright" unicode="&#xbb;" horiz-adv-x="1021" 
d="M92 53l283 424l-283 424h201l282 -424l-282 -424h-201zM455 53l282 424l-282 424h200l283 -424l-283 -424h-200z" />
    <glyph glyph-name="onequarter" unicode="&#xbc;" horiz-adv-x="1591" 
d="M80 1073v135l285 142v-797h-150v582zM213 -20l926 1390h155l-921 -1390h-160zM872 170l396 618h143v-487h105v-131h-105v-170h-149v170h-390zM1094 301h168v266z" />
    <glyph glyph-name="onehalf" unicode="&#xbd;" horiz-adv-x="1622" 
d="M80 1073v135l285 142v-797h-150v582zM213 -20l926 1390h155l-921 -1390h-160zM1010 567q19 108 90.5 171t175.5 63q106 0 180 -67.5t74 -170.5q0 -107 -84 -201q-80 -91 -191 -219h263v-143h-504v78l321 383q45 55 45 102q0 41 -30 67.5t-80 26.5q-47 0 -81.5 -32
t-41.5 -84z" />
    <glyph glyph-name="threequarters" unicode="&#xbe;" horiz-adv-x="1746" 
d="M74 709l127 65q21 -38 54.5 -63t74.5 -25q51 -3 90.5 27t42.5 71q1 18 -4 37t-17 39.5t-38.5 33t-63.5 11.5h-86v129h86q51 0 72.5 36t17.5 67q-2 31 -26.5 55.5t-63.5 24.5q-65 3 -104 -56l-113 78q34 56 98 87.5t139 27.5q100 -6 164 -69.5t64 -149.5
q0 -46 -27.5 -88.5t-71.5 -67.5q62 -23 100 -85.5t32 -127.5q-9 -99 -98.5 -165t-203.5 -58q-80 6 -146 51.5t-99 114.5zM369 -20l925 1390h156l-922 -1390h-159zM1028 170l395 618h144v-487h104v-131h-104v-170h-150v170h-389zM1249 301h168v266z" />
    <glyph glyph-name="questiondown" unicode="&#xbf;" horiz-adv-x="987" 
d="M68 -78q0 144 78.5 246.5t203.5 140.5q64 21 91.5 57t27.5 107l4 74h244l4 -74q0 -65 -8 -114.5t-27.5 -87.5t-42.5 -65.5t-62.5 -53.5t-78.5 -46t-98 -49q-6 -3 -9 -4q-78 -33 -78 -133q0 -64 52 -105.5t127 -41.5t124.5 49t49.5 129h248q0 -194 -118 -311t-304 -117
q-187 0 -307.5 109t-120.5 290zM430 819q0 68 47.5 113t114.5 45t114.5 -45t47.5 -113q0 -65 -47.5 -110t-114.5 -45t-114.5 45t-47.5 110z" />
    <glyph glyph-name="Agrave" unicode="&#xc0;" horiz-adv-x="1339" 
d="M0 0l528 1411h283l528 -1411h-276l-129 342h-526l-129 -342h-279zM309 1903h262l215 -334h-194zM496 571h352l-178 539z" />
    <glyph glyph-name="Aacute" unicode="&#xc1;" horiz-adv-x="1339" 
d="M0 0l528 1411h283l528 -1411h-276l-129 342h-526l-129 -342h-279zM496 571h352l-178 539zM547 1569l215 334h262l-283 -334h-194z" />
    <glyph glyph-name="Acircumflex" unicode="&#xc2;" horiz-adv-x="1339" 
d="M0 0l528 1411h283l528 -1411h-276l-129 342h-526l-129 -342h-279zM319 1575l224 334h252l225 -334h-193l-159 180l-156 -180h-193zM496 571h352l-178 539z" />
    <glyph glyph-name="Atilde" unicode="&#xc3;" horiz-adv-x="1339" 
d="M0 0l528 1411h283l528 -1411h-276l-129 342h-526l-129 -342h-279zM381 1610q7 134 65 195t132 61q38 0 72 -21t61 -42t47 -21q17 0 35.5 20t19.5 64h143q-7 -131 -66.5 -191.5t-131.5 -60.5q-29 0 -57.5 13t-47 29t-39.5 29t-36 13q-16 0 -34.5 -22t-19.5 -66h-143z
M496 571h352l-178 539z" />
    <glyph glyph-name="Adieresis" unicode="&#xc4;" horiz-adv-x="1339" 
d="M0 0l528 1411h283l528 -1411h-276l-129 342h-526l-129 -342h-279zM350 1749q0 56 41.5 94.5t100.5 38.5q58 0 98.5 -38.5t40.5 -94.5t-40.5 -94.5t-98.5 -38.5q-59 0 -100.5 38.5t-41.5 94.5zM496 571h352l-178 539zM707 1749q0 57 41 95t100 38t99 -38t40 -95t-40 -95
t-99 -38t-100 38t-41 95z" />
    <glyph glyph-name="Aring" unicode="&#xc5;" horiz-adv-x="1339" 
d="M0 0l528 1411h283l528 -1411h-276l-129 342h-526l-129 -342h-279zM432 1794q0 101 68.5 170.5t165.5 69.5q101 0 170 -69.5t69 -170.5q0 -98 -69 -165.5t-170 -67.5q-97 0 -165.5 67.5t-68.5 165.5zM496 571h352l-178 539zM549 1794q0 -49 34.5 -83t82.5 -34
q51 0 85.5 33.5t34.5 83.5q0 51 -34.5 86t-85.5 35q-48 0 -82.5 -35t-34.5 -86z" />
    <glyph glyph-name="AE" unicode="&#xc6;" horiz-adv-x="1910" 
d="M-29 0l891 1411h926v-237h-610v-363h534v-233h-534v-340h630v-238h-890v2l-3 -2v334h-419l-213 -334h-312zM645 586h270v471z" />
    <glyph glyph-name="Ccedilla" unicode="&#xc7;" horiz-adv-x="1421" 
d="M92 702q0 198 93.5 364.5t257 263.5t360.5 97q177 0 325 -74t242 -204l-209 -150q-64 83 -156.5 132t-201.5 49q-126 0 -229 -64t-161.5 -173.5t-58.5 -240.5q0 -130 58.5 -238.5t161.5 -172.5t229 -64q112 0 207.5 51.5t158.5 139.5l207 -152q-86 -122 -220 -197
t-296 -87l64 -115q18 -33 18 -94q0 -83 -63 -146t-152 -63q-87 0 -148.5 66.5t-60.5 179.5l141 -9q1 -26 11 -51q10 -26 35 -37.5t53 -3.5q27 10 36 37.5t-1 56.5l-68 181q-179 19 -324 119t-227 257.5t-82 341.5z" />
    <glyph glyph-name="Egrave" unicode="&#xc8;" horiz-adv-x="1171" 
d="M176 0v1411h873v-233h-613v-367h537v-231h-537v-347h633v-233h-893zM311 1903h262l215 -334h-194z" />
    <glyph glyph-name="Eacute" unicode="&#xc9;" horiz-adv-x="1171" 
d="M176 0v1411h873v-233h-613v-367h537v-231h-537v-347h633v-233h-893zM391 1569l215 334h262l-282 -334h-195z" />
    <glyph glyph-name="Ecircumflex" unicode="&#xca;" horiz-adv-x="1171" 
d="M176 0v1411h873v-233h-613v-367h537v-231h-537v-347h633v-233h-893zM231 1575l224 334h252l225 -334h-193l-159 180l-156 -180h-193z" />
    <glyph glyph-name="Edieresis" unicode="&#xcb;" horiz-adv-x="1171" 
d="M176 0v1411h873v-233h-613v-367h537v-231h-537v-347h633v-233h-893zM291 1749q0 57 41 95t100 38q58 0 98.5 -38.5t40.5 -94.5t-40.5 -94.5t-98.5 -38.5q-59 0 -100 38t-41 95zM647 1749q0 57 41 95t100 38t99.5 -38t40.5 -95t-40.5 -95t-99.5 -38t-100 38t-41 95z" />
    <glyph glyph-name="Igrave" unicode="&#xcc;" horiz-adv-x="612" 
d="M-43 1903h262l215 -334h-194zM176 0v1411h260v-1411h-260z" />
    <glyph glyph-name="Iacute" unicode="&#xcd;" horiz-adv-x="612" 
d="M176 0v1411h260v-1411h-260zM178 1569l215 334h262l-282 -334h-195z" />
    <glyph glyph-name="Icircumflex" unicode="&#xce;" horiz-adv-x="612" 
d="M-43 1575l223 334h252l225 -334h-192l-160 180l-155 -180h-193zM176 0v1411h260v-1411h-260z" />
    <glyph glyph-name="Idieresis" unicode="&#xcf;" horiz-adv-x="612" 
d="M-12 1749q0 57 41 95t100 38q58 0 98.5 -38.5t40.5 -94.5t-40.5 -94.5t-98.5 -38.5q-59 0 -100 38t-41 95zM176 0v1411h260v-1411h-260zM344 1749q0 57 41 95t100 38t99.5 -38t40.5 -95t-40.5 -95t-99.5 -38t-100 38t-41 95z" />
    <glyph glyph-name="Eth" unicode="&#xd0;" horiz-adv-x="1478" 
d="M6 600v180h193v631h546q198 0 343.5 -94t218.5 -253.5t73 -361.5q0 -201 -73 -358.5t-218.5 -250.5t-343.5 -93h-546v600h-193zM459 244h286q180 0 277.5 129t97.5 329q0 130 -40.5 233.5t-127 167.5t-207.5 64h-286v-387h282v-180h-282v-356z" />
    <glyph glyph-name="Ntilde" unicode="&#xd1;" horiz-adv-x="1396" 
d="M176 0v1411h244l538 -917v917h263v-1411h-240l-545 928v-928h-260zM410 1610q7 134 64.5 195t131.5 61q38 0 72 -21t61 -42t47 -21q17 0 36 20.5t20 63.5h143q-4 -69 -24 -120.5t-50 -78.5t-61.5 -40t-63.5 -13q-29 0 -57.5 13t-47 29t-39.5 29t-36 13q-16 0 -34 -22
t-19 -66h-143z" />
    <glyph glyph-name="Ograve" unicode="&#xd2;" horiz-adv-x="1611" 
d="M90 702q0 198 94.5 364.5t259 263.5t361.5 97t362 -97t260 -263.5t95 -364.5q0 -196 -95 -362t-260 -263t-362 -97t-361.5 97t-259 263t-94.5 362zM350 702q0 -194 132 -329t323 -135q190 0 322.5 135t132.5 329t-132.5 330.5t-322.5 136.5q-191 0 -323 -136.5
t-132 -330.5zM426 1903h262l215 -334h-194z" />
    <glyph glyph-name="Oacute" unicode="&#xd3;" horiz-adv-x="1611" 
d="M90 702q0 198 94.5 364.5t259 263.5t361.5 97t362 -97t260 -263.5t95 -364.5q0 -196 -95 -362t-260 -263t-362 -97t-361.5 97t-259 263t-94.5 362zM350 702q0 -194 132 -329t323 -135q190 0 322.5 135t132.5 329t-132.5 330.5t-322.5 136.5q-191 0 -323 -136.5
t-132 -330.5zM694 1569l215 334h262l-282 -334h-195z" />
    <glyph glyph-name="Ocircumflex" unicode="&#xd4;" horiz-adv-x="1611" 
d="M90 702q0 198 94.5 364.5t259 263.5t361.5 97t362 -97t260 -263.5t95 -364.5q0 -196 -95 -362t-260 -263t-362 -97t-361.5 97t-259 263t-94.5 362zM350 702q0 -194 132 -329t323 -135q190 0 322.5 135t132.5 329t-132.5 330.5t-322.5 136.5q-191 0 -323 -136.5
t-132 -330.5zM455 1575l223 334h252l225 -334h-192l-160 180l-156 -180h-192z" />
    <glyph glyph-name="Otilde" unicode="&#xd5;" horiz-adv-x="1611" 
d="M90 702q0 198 94.5 364.5t259 263.5t361.5 97t362 -97t260 -263.5t95 -364.5q0 -196 -95 -362t-260 -263t-362 -97t-361.5 97t-259 263t-94.5 362zM350 702q0 -194 132 -329t323 -135q190 0 322.5 135t132.5 329t-132.5 330.5t-322.5 136.5q-191 0 -323 -136.5
t-132 -330.5zM518 1610q7 134 65 195t132 61q38 0 72 -21t61 -42t47 -21q17 0 35.5 20t19.5 64h144q-4 -69 -24 -120.5t-50 -78.5t-61.5 -40t-63.5 -13q-29 0 -57.5 13t-47 29t-39.5 29t-36 13q-16 0 -34 -22t-19 -66h-144z" />
    <glyph glyph-name="Odieresis" unicode="&#xd6;" horiz-adv-x="1611" 
d="M90 702q0 198 94.5 364.5t259 263.5t361.5 97t362 -97t260 -263.5t95 -364.5q0 -196 -95 -362t-260 -263t-362 -97t-361.5 97t-259 263t-94.5 362zM350 702q0 -194 132 -329t323 -135q190 0 322.5 135t132.5 329t-132.5 330.5t-322.5 136.5q-191 0 -323 -136.5
t-132 -330.5zM487 1749q0 56 41.5 94.5t100.5 38.5q58 0 98.5 -38.5t40.5 -94.5t-40.5 -94.5t-98.5 -38.5q-59 0 -100.5 38.5t-41.5 94.5zM844 1749q0 57 41 95t100 38t99 -38t40 -95t-40 -95t-99 -38t-100 38t-41 95z" />
    <glyph glyph-name="multiply" unicode="&#xd7;" horiz-adv-x="1007" 
d="M121 784l139 138l244 -242l246 246l139 -142l-246 -243l246 -244l-139 -141l-246 243l-242 -239l-139 139l242 242z" />
    <glyph glyph-name="Oslash" unicode="&#xd8;" horiz-adv-x="1607" 
d="M88 702q0 198 94.5 364.5t259 263.5t361.5 97q262 0 457 -165l161 165l97 -94l-164 -168q166 -203 166 -463q0 -196 -95 -362t-260 -263t-362 -97q-232 0 -414 133q-4 3 -16.5 10t-18.5 12l-164 -168l-96 96l164 168q-170 204 -170 471zM348 702q0 -155 92 -284l637 657
q-118 94 -274 94q-191 0 -323 -136.5t-132 -330.5zM537 324q116 -86 266 -86q190 0 322 135t132 329q0 150 -88 275z" />
    <glyph glyph-name="Ugrave" unicode="&#xd9;" horiz-adv-x="1394" 
d="M162 498v913h266v-913q0 -120 79.5 -195.5t190.5 -75.5t192 76t81 195v913h262v-913q0 -115 -43.5 -213.5t-116.5 -164.5t-170.5 -103t-204.5 -37t-204.5 37t-171 103t-117 164.5t-43.5 213.5zM375 1903h262l215 -334h-195z" />
    <glyph glyph-name="Uacute" unicode="&#xda;" horiz-adv-x="1394" 
d="M162 498v913h266v-913q0 -120 79.5 -195.5t190.5 -75.5t192 76t81 195v913h262v-913q0 -115 -43.5 -213.5t-116.5 -164.5t-170.5 -103t-204.5 -37t-204.5 37t-171 103t-117 164.5t-43.5 213.5zM524 1569l215 334h262l-282 -334h-195z" />
    <glyph glyph-name="Ucircumflex" unicode="&#xdb;" horiz-adv-x="1394" 
d="M162 498v913h266v-913q0 -120 79.5 -195.5t190.5 -75.5t192 76t81 195v913h262v-913q0 -115 -43.5 -213.5t-116.5 -164.5t-170.5 -103t-204.5 -37t-204.5 37t-171 103t-117 164.5t-43.5 213.5zM346 1575l223 334h252l226 -334h-193l-160 180l-155 -180h-193z" />
    <glyph glyph-name="Udieresis" unicode="&#xdc;" horiz-adv-x="1394" 
d="M162 498v913h266v-913q0 -120 79.5 -195.5t190.5 -75.5t192 76t81 195v913h262v-913q0 -115 -43.5 -213.5t-116.5 -164.5t-170.5 -103t-204.5 -37t-204.5 37t-171 103t-117 164.5t-43.5 213.5zM379 1749q0 57 41 95t100 38q58 0 98.5 -38.5t40.5 -94.5t-40.5 -94.5
t-98.5 -38.5q-59 0 -100 38t-41 95zM735 1749q0 56 41.5 94.5t100.5 38.5t99 -38t40 -95t-40 -95t-99 -38t-100.5 38.5t-41.5 94.5z" />
    <glyph glyph-name="Yacute" unicode="&#xdd;" horiz-adv-x="1318" 
d="M-16 1411h311l362 -543l367 543h313l-544 -772v-639h-269v643zM508 1569l215 334h262l-283 -334h-194z" />
    <glyph glyph-name="Thorn" unicode="&#xde;" horiz-adv-x="1173" 
d="M176 0v1411h260v-237h232q190 0 318 -124t128 -327t-128 -330t-318 -127h-232v-266h-260zM436 496h221q81 0 140 62t59 161q0 101 -60.5 162.5t-144.5 64.5h-215v-450z" />
    <glyph glyph-name="germandbls" unicode="&#xdf;" 
d="M141 0v1004q0 198 115 310.5t297 112.5t299 -98.5t117 -245.5q0 -88 -31.5 -146.5t-97.5 -102.5q106 -52 172.5 -154.5t66.5 -233.5q0 -202 -123.5 -334t-339.5 -132q-78 0 -159 24l37 236q67 -17 120 -17q100 0 165 71t65 165q0 38 -14.5 78t-42.5 76t-75 58.5
t-106 22.5h-63v213h49q61 0 99 43.5t38 106.5q0 62 -46 101.5t-120 39.5q-28 0 -50 -5t-47 -20.5t-41 -42.5t-27 -74.5t-11 -111.5v-944h-246z" />
    <glyph glyph-name="agrave" unicode="&#xe0;" horiz-adv-x="1257" 
d="M82 479q0 112 40.5 207t108.5 158t155.5 98t182.5 35q79 0 164 -33.5t133 -105.5v118h250v-956h-250v123q-42 -68 -129.5 -104.5t-167.5 -36.5q-127 0 -237.5 59.5t-180 175t-69.5 262.5zM315 1448h263l215 -334h-195zM340 479q0 -112 79 -185t185 -73q107 0 184.5 70
t77.5 188t-78.5 188t-183.5 70q-107 0 -185.5 -72.5t-78.5 -185.5z" />
    <glyph glyph-name="aacute" unicode="&#xe1;" horiz-adv-x="1257" 
d="M82 479q0 112 40.5 207t108.5 158t155.5 98t182.5 35q79 0 164 -33.5t133 -105.5v118h250v-956h-250v123q-42 -68 -129.5 -104.5t-167.5 -36.5q-127 0 -237.5 59.5t-180 175t-69.5 262.5zM340 479q0 -112 79 -185t185 -73q107 0 184.5 70t77.5 188t-78.5 188t-183.5 70
q-107 0 -185.5 -72.5t-78.5 -185.5zM449 1114l215 334h262l-283 -334h-194z" />
    <glyph glyph-name="acircumflex" unicode="&#xe2;" horiz-adv-x="1257" 
d="M82 479q0 112 40.5 207t108.5 158t155.5 98t182.5 35q79 0 164 -33.5t133 -105.5v118h250v-956h-250v123q-42 -68 -129.5 -104.5t-167.5 -36.5q-127 0 -237.5 59.5t-180 175t-69.5 262.5zM279 1120l223 334h252l225 -334h-193l-159 180l-156 -180h-192zM340 479
q0 -112 79 -185t185 -73q107 0 184.5 70t77.5 188t-78.5 188t-183.5 70q-107 0 -185.5 -72.5t-78.5 -185.5z" />
    <glyph glyph-name="atilde" unicode="&#xe3;" horiz-adv-x="1257" 
d="M82 479q0 112 40.5 207t108.5 158t155.5 98t182.5 35q79 0 164 -33.5t133 -105.5v118h250v-956h-250v123q-42 -68 -129.5 -104.5t-167.5 -36.5q-127 0 -237.5 59.5t-180 175t-69.5 262.5zM340 479q0 -112 79 -185t185 -73q107 0 184.5 70t77.5 188t-78.5 188t-183.5 70
q-107 0 -185.5 -72.5t-78.5 -185.5zM342 1155q7 134 65 195t132 61q38 0 72 -21t61 -42t47 -21q17 0 35.5 20t19.5 64h144q-4 -69 -24 -120.5t-50 -78.5t-61.5 -40t-63.5 -13q-37 0 -72 21t-62 42t-46 21q-17 0 -35 -22t-19 -66h-143z" />
    <glyph glyph-name="adieresis" unicode="&#xe4;" horiz-adv-x="1257" 
d="M82 479q0 112 40.5 207t108.5 158t155.5 98t182.5 35q79 0 164 -33.5t133 -105.5v118h250v-956h-250v123q-42 -68 -129.5 -104.5t-167.5 -36.5q-127 0 -237.5 59.5t-180 175t-69.5 262.5zM311 1294q0 56 41.5 94.5t100.5 38.5q58 0 98.5 -38.5t40.5 -94.5t-40.5 -94.5
t-98.5 -38.5q-59 0 -100.5 38.5t-41.5 94.5zM340 479q0 -112 79 -185t185 -73q107 0 184.5 70t77.5 188t-78.5 188t-183.5 70q-107 0 -185.5 -72.5t-78.5 -185.5zM668 1294q0 57 41 95t100 38t99 -38t40 -95t-40 -95t-99 -38t-100 38t-41 95z" />
    <glyph glyph-name="aring" unicode="&#xe5;" horiz-adv-x="1257" 
d="M82 479q0 112 40.5 207t108.5 158t155.5 98t182.5 35q79 0 164 -33.5t133 -105.5v118h250v-956h-250v123q-42 -68 -129.5 -104.5t-167.5 -36.5q-127 0 -237.5 59.5t-180 175t-69.5 262.5zM340 479q0 -112 79 -185t185 -73q107 0 184.5 70t77.5 188t-78.5 188t-183.5 70
q-107 0 -185.5 -72.5t-78.5 -185.5zM393 1339q0 101 68.5 170.5t165.5 69.5q101 0 170 -69.5t69 -170.5q0 -98 -69 -165.5t-170 -67.5q-97 0 -165.5 67.5t-68.5 165.5zM510 1339q0 -49 34.5 -82.5t82.5 -33.5q51 0 86 33.5t35 82.5q0 51 -35 86t-86 35q-48 0 -82.5 -35
t-34.5 -86z" />
    <glyph glyph-name="ae" unicode="&#xe6;" horiz-adv-x="2033" 
d="M82 479q0 112 40.5 207t108.5 158t155.5 98t182.5 35q79 0 164 -33.5t133 -105.5v118h232v-153q64 83 164 128.5t217 45.5q208 0 345.5 -137t137.5 -359q0 -40 -4 -86h-729q13 -95 85 -150t179 -55q76 0 142 32t98 91q33 -18 101 -53.5t91 -48.5q-62 -116 -183.5 -173.5
t-262.5 -57.5q-117 0 -216.5 46.5t-164.5 131.5v-158h-232v123q-42 -68 -129.5 -104.5t-167.5 -36.5q-127 0 -237.5 59.5t-180 175t-69.5 262.5zM340 479q0 -112 79 -185t185 -73q107 0 184.5 70t77.5 188t-78.5 188t-183.5 70q-107 0 -185.5 -72.5t-78.5 -185.5zM1227 565
h491q-12 95 -77.5 149t-161.5 54q-100 0 -168.5 -54t-83.5 -149z" />
    <glyph glyph-name="ccedilla" unicode="&#xe7;" horiz-adv-x="1069" 
d="M82 481q0 110 42 204t113 157.5t164.5 99t196.5 35.5q121 0 225.5 -48.5t171.5 -137.5l-198 -150q-33 45 -86 69.5t-113 24.5q-109 0 -188.5 -70.5t-79.5 -183.5q0 -114 80 -188t188 -74q59 0 112.5 25.5t86.5 70.5l200 -147q-60 -78 -149 -125.5t-193 -58.5l64 -117
q18 -33 18 -94q0 -83 -63 -146t-152 -63q-87 0 -148.5 66.5t-60.5 179.5l142 -9q0 -26 10 -51q10 -26 35 -37.5t53 -3.5q27 10 36 37.5t-1 56.5l-68 183q-187 26 -312.5 161t-125.5 334z" />
    <glyph glyph-name="egrave" unicode="&#xe8;" horiz-adv-x="1132" 
d="M82 481q0 147 67.5 261t180 174.5t248.5 60.5q208 0 346.5 -137t138.5 -359q0 -40 -4 -86h-729q12 -94 84.5 -149.5t179.5 -55.5q76 0 142 32t98 91q34 -19 103 -56t87 -46q-61 -116 -182 -173.5t-264 -57.5q-136 0 -248.5 61.5t-180 177t-67.5 262.5zM229 1448h263
l215 -334h-195zM328 565h491q-13 96 -78.5 149.5t-160.5 53.5q-100 0 -169.5 -54t-82.5 -149z" />
    <glyph glyph-name="eacute" unicode="&#xe9;" horiz-adv-x="1132" 
d="M82 481q0 147 67.5 261t180 174.5t248.5 60.5q208 0 346.5 -137t138.5 -359q0 -40 -4 -86h-729q12 -94 84.5 -149.5t179.5 -55.5q76 0 142 32t98 91q34 -19 103 -56t87 -46q-61 -116 -182 -173.5t-264 -57.5q-136 0 -248.5 61.5t-180 177t-67.5 262.5zM328 565h491
q-13 96 -78.5 149.5t-160.5 53.5q-100 0 -169.5 -54t-82.5 -149zM465 1114l215 334h262l-283 -334h-194z" />
    <glyph glyph-name="ecircumflex" unicode="&#xea;" horiz-adv-x="1132" 
d="M82 481q0 147 67.5 261t180 174.5t248.5 60.5q208 0 346.5 -137t138.5 -359q0 -40 -4 -86h-729q12 -94 84.5 -149.5t179.5 -55.5q76 0 142 32t98 91q34 -19 103 -56t87 -46q-61 -116 -182 -173.5t-264 -57.5q-136 0 -248.5 61.5t-180 177t-67.5 262.5zM221 1120l223 334
h252l226 -334h-193l-160 180l-155 -180h-193zM328 565h491q-13 96 -78.5 149.5t-160.5 53.5q-100 0 -169.5 -54t-82.5 -149z" />
    <glyph glyph-name="edieresis" unicode="&#xeb;" horiz-adv-x="1132" 
d="M82 481q0 147 67.5 261t180 174.5t248.5 60.5q208 0 346.5 -137t138.5 -359q0 -40 -4 -86h-729q12 -94 84.5 -149.5t179.5 -55.5q76 0 142 32t98 91q34 -19 103 -56t87 -46q-61 -116 -182 -173.5t-264 -57.5q-136 0 -248.5 61.5t-180 177t-67.5 262.5zM254 1294
q0 57 41 95t100 38q58 0 99 -38.5t41 -94.5t-41 -94.5t-99 -38.5q-59 0 -100 38t-41 95zM328 565h491q-13 96 -78.5 149.5t-160.5 53.5q-100 0 -169.5 -54t-82.5 -149zM610 1294q0 56 41.5 94.5t100.5 38.5t99 -38t40 -95t-40 -95t-99 -38t-100.5 38.5t-41.5 94.5z" />
    <glyph glyph-name="igrave" unicode="&#xec;" horiz-adv-x="530" 
d="M-94 1448h262l215 -334h-195zM141 0v956h248v-956h-248z" />
    <glyph glyph-name="iacute" unicode="&#xed;" horiz-adv-x="530" 
d="M139 1114l215 334h262l-282 -334h-195zM141 0v956h248v-956h-248z" />
    <glyph glyph-name="icircumflex" unicode="&#xee;" horiz-adv-x="530" 
d="M-84 1120l223 334h252l225 -334h-192l-160 180l-155 -180h-193zM141 0v956h248v-956h-248z" />
    <glyph glyph-name="idieresis" unicode="&#xef;" horiz-adv-x="530" 
d="M-53 1294q0 57 41 95t100 38q58 0 98.5 -38.5t40.5 -94.5t-40.5 -94.5t-98.5 -38.5q-59 0 -100 38t-41 95zM141 0v956h248v-956h-248zM303 1294q0 57 41 95t100 38t99.5 -38t40.5 -95t-40.5 -95t-99.5 -38t-100 38t-41 95z" />
    <glyph glyph-name="eth" unicode="&#xf0;" 
d="M82 479q0 201 125.5 334.5t308.5 147.5q38 3 90 -7l-129 156l-174 -88l-61 98l164 84l-154 207h252l86 -115l162 80l71 -88l-161 -84l321 -428q94 -131 94 -297q0 -147 -67.5 -262t-180.5 -176t-249 -61q-135 0 -248 61t-181.5 176.5t-68.5 261.5zM328 479
q0 -114 73 -185t179 -71q107 0 180.5 71t73.5 185q0 113 -73.5 181.5t-180.5 68.5q-106 0 -179 -69t-73 -181z" />
    <glyph glyph-name="ntilde" unicode="&#xf1;" 
d="M141 0v956h250v-141q39 74 119 118t166 44q169 0 262.5 -106t93.5 -306v-565h-250v520q0 102 -49 157.5t-133 55.5q-93 0 -151 -53t-58 -170v-510h-250zM293 1155q7 134 64.5 195t131.5 61q38 0 72 -21t61.5 -42t47.5 -21q17 0 35.5 20t19.5 64h143q-7 -131 -66.5 -191.5
t-131.5 -60.5q-37 0 -72 21t-63 42t-46 21q-16 0 -34 -22t-19 -66h-143z" />
    <glyph glyph-name="ograve" unicode="&#xf2;" horiz-adv-x="1159" 
d="M82 481q0 147 68 261t181 174.5t249 60.5q135 0 248 -60.5t181 -175t68 -260.5t-68 -261.5t-181 -176.5t-248 -61q-136 0 -249 61t-181 176t-68 262zM236 1448h262l215 -334h-195zM330 481q0 -114 72 -185t178 -71q105 0 177 71t72 185q0 112 -72 181t-177 69
t-177.5 -69.5t-72.5 -180.5z" />
    <glyph glyph-name="oacute" unicode="&#xf3;" horiz-adv-x="1159" 
d="M82 481q0 147 68 261t181 174.5t249 60.5q135 0 248 -60.5t181 -175t68 -260.5t-68 -261.5t-181 -176.5t-248 -61q-136 0 -249 61t-181 176t-68 262zM330 481q0 -114 72 -185t178 -71q105 0 177 71t72 185q0 112 -72 181t-177 69t-177.5 -69.5t-72.5 -180.5zM449 1114
l215 334h262l-283 -334h-194z" />
    <glyph glyph-name="ocircumflex" unicode="&#xf4;" horiz-adv-x="1159" 
d="M82 481q0 147 68 261t181 174.5t249 60.5q135 0 248 -60.5t181 -175t68 -260.5t-68 -261.5t-181 -176.5t-248 -61q-136 0 -249 61t-181 176t-68 262zM229 1120l224 334h252l225 -334h-193l-159 180l-156 -180h-193zM330 481q0 -114 72 -185t178 -71q105 0 177 71t72 185
q0 112 -72 181t-177 69t-177.5 -69.5t-72.5 -180.5z" />
    <glyph glyph-name="otilde" unicode="&#xf5;" horiz-adv-x="1159" 
d="M82 481q0 147 68 261t181 174.5t249 60.5q135 0 248 -60.5t181 -175t68 -260.5t-68 -261.5t-181 -176.5t-248 -61q-136 0 -249 61t-181 176t-68 262zM291 1155q7 134 64.5 195t131.5 61q38 0 72 -21t61.5 -42t47.5 -21q17 0 35.5 20t19.5 64h143q-7 -131 -66.5 -191.5
t-131.5 -60.5q-37 0 -72 21t-63 42t-46 21q-16 0 -34 -22t-19 -66h-143zM330 481q0 -114 72 -185t178 -71q105 0 177 71t72 185q0 112 -72 181t-177 69t-177.5 -69.5t-72.5 -180.5z" />
    <glyph glyph-name="odieresis" unicode="&#xf6;" horiz-adv-x="1159" 
d="M82 481q0 147 68 261t181 174.5t249 60.5q135 0 248 -60.5t181 -175t68 -260.5t-68 -261.5t-181 -176.5t-248 -61q-136 0 -249 61t-181 176t-68 262zM260 1294q0 57 41 95t100 38q58 0 99 -38.5t41 -94.5t-41 -94.5t-99 -38.5q-59 0 -100 38t-41 95zM330 481
q0 -114 72 -185t178 -71q105 0 177 71t72 185q0 112 -72 181t-177 69t-177.5 -69.5t-72.5 -180.5zM616 1294q0 56 41.5 94.5t100.5 38.5t99 -38t40 -95t-40 -95t-99 -38t-100.5 38.5t-41.5 94.5z" />
    <glyph glyph-name="divide" unicode="&#xf7;" 
d="M115 414v186h932v-186h-932zM430 135q0 62 45 104t107 42t106.5 -42t44.5 -104t-44.5 -103.5t-106.5 -41.5q-63 0 -107.5 41.5t-44.5 103.5zM430 885q0 62 44.5 102.5t107.5 40.5t107 -40.5t44 -102.5q0 -63 -44 -104.5t-107 -41.5t-107.5 41.5t-44.5 104.5z" />
    <glyph glyph-name="oslash" unicode="&#xf8;" horiz-adv-x="1159" 
d="M74 43l114 119q-106 128 -106 317q0 147 68 261.5t181 175.5t249 61q170 0 307 -100l104 108l96 -94l-106 -109q96 -130 96 -303q0 -146 -68 -261.5t-181 -176.5t-248 -61q-164 0 -291 88l-119 -121zM330 479q0 -82 35 -137l344 354q-59 35 -129 35q-105 0 -177.5 -70
t-72.5 -182zM465 250q53 -27 115 -27q105 0 177 71t72 185q0 65 -26 119z" />
    <glyph glyph-name="ugrave" unicode="&#xf9;" 
d="M129 391v565h252v-520q0 -108 53.5 -160.5t128.5 -52.5q88 0 147.5 54t59.5 169v510h250v-956h-250v135q-38 -73 -112.5 -114t-151.5 -41q-173 0 -275 106.5t-102 304.5zM276 1448h261l217 -334h-197z" />
    <glyph glyph-name="uacute" unicode="&#xfa;" 
d="M129 391v565h252v-520q0 -108 53.5 -160.5t128.5 -52.5q88 0 147.5 54t59.5 169v510h250v-956h-250v135q-38 -73 -112.5 -114t-151.5 -41q-173 0 -275 106.5t-102 304.5zM422 1114l217 334h262l-283 -334h-196z" />
    <glyph glyph-name="ucircumflex" unicode="&#xfb;" 
d="M129 391v565h252v-520q0 -108 53.5 -160.5t128.5 -52.5q88 0 147.5 54t59.5 169v510h250v-956h-250v135q-38 -73 -112.5 -114t-151.5 -41q-173 0 -275 106.5t-102 304.5zM219 1120l223 334h252l226 -334h-193l-160 180l-155 -180h-193z" />
    <glyph glyph-name="udieresis" unicode="&#xfc;" 
d="M129 391v565h252v-520q0 -108 53.5 -160.5t128.5 -52.5q88 0 147.5 54t59.5 169v510h250v-956h-250v135q-38 -73 -112.5 -114t-151.5 -41q-173 0 -275 106.5t-102 304.5zM256 1300q0 57 41 95.5t100 38.5q57 0 97.5 -38.5t40.5 -95.5t-40.5 -95t-97.5 -38q-59 0 -100 38
t-41 95zM612 1300q0 57 41.5 95.5t100.5 38.5q57 0 98 -38.5t41 -95.5q0 -56 -40.5 -94.5t-98.5 -38.5q-59 0 -100.5 38.5t-41.5 94.5z" />
    <glyph glyph-name="yacute" unicode="&#xfd;" horiz-adv-x="1046" 
d="M18 956h267l237 -596l240 596h266l-592 -1423h-264l219 541zM344 1114l215 334h262l-282 -334h-195z" />
    <glyph glyph-name="thorn" unicode="&#xfe;" horiz-adv-x="1234" 
d="M141 -465v1942h248v-637q40 64 120.5 100.5t172.5 36.5q95 0 180.5 -35.5t150 -99.5t102.5 -158.5t38 -206.5q0 -110 -38 -204t-102.5 -157.5t-150 -99.5t-180.5 -36q-91 0 -172 37t-121 102v-584h-248zM393 481q0 -118 74 -190t180 -72q105 0 177.5 73t72.5 189
q0 113 -72.5 184.5t-177.5 71.5q-103 0 -178.5 -69.5t-75.5 -186.5z" />
    <glyph glyph-name="ydieresis" unicode="&#xff;" horiz-adv-x="1046" 
d="M18 956h267l237 -596l240 596h266l-592 -1423h-264l219 541zM211 1294q0 57 41 95t100 38q58 0 99 -38.5t41 -94.5t-41 -94.5t-99 -38.5q-59 0 -100 38t-41 95zM567 1294q0 56 41.5 94.5t100.5 38.5t99 -38t40 -95t-40 -95t-99 -38t-100.5 38.5t-41.5 94.5z" />
    <glyph glyph-name="Amacron" unicode="&#x100;" horiz-adv-x="1339" 
d="M0 0l528 1411h283l528 -1411h-276l-129 342h-526l-129 -342h-279zM393 1653v170h551v-170h-551zM496 571h352l-178 539z" />
    <glyph glyph-name="amacron" unicode="&#x101;" horiz-adv-x="1257" 
d="M82 479q0 112 40.5 207t108.5 158t155.5 98t182.5 35q79 0 164 -33.5t133 -105.5v118h250v-956h-250v123q-42 -68 -129.5 -104.5t-167.5 -36.5q-127 0 -237.5 59.5t-180 175t-69.5 262.5zM340 479q0 -112 79 -185t185 -73q107 0 184.5 70t77.5 188t-78.5 188t-183.5 70
q-107 0 -185.5 -72.5t-78.5 -185.5zM354 1198v170h551v-170h-551z" />
    <glyph glyph-name="Abreve" unicode="&#x102;" horiz-adv-x="1339" 
d="M0 0l528 1411h283l528 -1411h-276l-129 342h-526l-129 -342h-279zM395 1862h168q0 -113 105 -113q51 0 77.5 33t26.5 80h170q0 -121 -76 -194t-198 -73q-90 0 -153.5 39.5t-91.5 98t-28 129.5zM496 571h352l-178 539z" />
    <glyph glyph-name="abreve" unicode="&#x103;" horiz-adv-x="1257" 
d="M82 479q0 112 40.5 207t108.5 158t155.5 98t182.5 35q79 0 164 -33.5t133 -105.5v118h250v-956h-250v123q-42 -68 -129.5 -104.5t-167.5 -36.5q-127 0 -237.5 59.5t-180 175t-69.5 262.5zM340 479q0 -112 79 -185t185 -73q107 0 184.5 70t77.5 188t-78.5 188t-183.5 70
q-107 0 -185.5 -72.5t-78.5 -185.5zM356 1407h168q0 -113 105 -113q51 0 77.5 33t26.5 80h170q0 -121 -76 -193.5t-198 -72.5q-133 0 -203 78t-70 188z" />
    <glyph glyph-name="Aogonek" unicode="&#x104;" horiz-adv-x="1339" 
d="M0 0l528 1411h283l528 -1411h-147l-72 -197q-10 -29 -1 -56.5t36 -37.5q28 -8 53 3.5t35 37.5q4 11 6.5 24t2.5 20l1 7l142 9q1 -113 -60.5 -179.5t-148.5 -66.5q-89 0 -152 63t-63 146q0 61 18 94l72 133l-127 342h-526l-129 -342h-279zM496 571h352l-178 539z" />
    <glyph glyph-name="aogonek" unicode="&#x105;" horiz-adv-x="1257" 
d="M82 479q0 112 40.5 207t108.5 158t155.5 98t182.5 35q79 0 164 -33.5t133 -105.5v118h250v-956h-119l-71 -197q-10 -29 -1 -56.5t36 -37.5q28 -8 53 3.5t35 37.5q4 11 6.5 24t2.5 20l1 7l141 9q1 -113 -60.5 -179.5t-148.5 -66.5q-89 0 -152 63t-63 146q0 59 19 94
l71 133v123q-42 -68 -129.5 -104.5t-167.5 -36.5q-127 0 -237.5 59.5t-180 175t-69.5 262.5zM340 479q0 -112 79 -185t185 -73q107 0 184.5 70t77.5 188t-78.5 188t-183.5 70q-107 0 -185.5 -72.5t-78.5 -185.5z" />
    <glyph glyph-name="Cacute" unicode="&#x106;" horiz-adv-x="1419" 
d="M90 702q0 198 93.5 364.5t257 263.5t360.5 97q177 0 325 -74t242 -204l-209 -150q-64 83 -156.5 132t-201.5 49q-126 0 -229 -64t-161.5 -173.5t-58.5 -240.5q0 -130 58.5 -238.5t161.5 -172.5t229 -64q112 0 207.5 51.5t158.5 139.5l207 -152q-94 -133 -243.5 -209.5
t-329.5 -76.5q-197 0 -360.5 97t-257 263t-93.5 362zM682 1569l215 334h262l-282 -334h-195z" />
    <glyph glyph-name="cacute" unicode="&#x107;" horiz-adv-x="1064" 
d="M80 481q0 110 42 204t113 157.5t164.5 99t196.5 35.5q121 0 225.5 -48.5t171.5 -137.5l-198 -150q-33 45 -86 69.5t-113 24.5q-109 0 -188.5 -70.5t-79.5 -183.5q0 -114 80 -188t188 -74q59 0 112.5 25.5t86.5 70.5l200 -147q-67 -89 -172 -138.5t-227 -49.5
q-137 0 -254.5 61.5t-189.5 177.5t-72 262zM489 1114l216 334h262l-283 -334h-195z" />
    <glyph glyph-name="Ccircumflex" unicode="&#x108;" horiz-adv-x="1419" 
d="M90 702q0 198 93.5 364.5t257 263.5t360.5 97q177 0 325 -74t242 -204l-209 -150q-64 83 -156.5 132t-201.5 49q-126 0 -229 -64t-161.5 -173.5t-58.5 -240.5q0 -130 58.5 -238.5t161.5 -172.5t229 -64q112 0 207.5 51.5t158.5 139.5l207 -152q-94 -133 -243.5 -209.5
t-329.5 -76.5q-197 0 -360.5 97t-257 263t-93.5 362zM449 1575l223 334h252l225 -334h-193l-159 180l-156 -180h-192z" />
    <glyph glyph-name="ccircumflex" unicode="&#x109;" horiz-adv-x="1064" 
d="M80 481q0 110 42 204t113 157.5t164.5 99t196.5 35.5q121 0 225.5 -48.5t171.5 -137.5l-198 -150q-33 45 -86 69.5t-113 24.5q-109 0 -188.5 -70.5t-79.5 -183.5q0 -114 80 -188t188 -74q59 0 112.5 25.5t86.5 70.5l200 -147q-67 -89 -172 -138.5t-227 -49.5
q-137 0 -254.5 61.5t-189.5 177.5t-72 262zM233 1120l224 334h252l225 -334h-193l-159 180l-156 -180h-193z" />
    <glyph glyph-name="Cdotaccent" unicode="&#x10a;" horiz-adv-x="1419" 
d="M90 702q0 198 93.5 364.5t257 263.5t360.5 97q177 0 325 -74t242 -204l-209 -150q-64 83 -156.5 132t-201.5 49q-126 0 -229 -64t-161.5 -173.5t-58.5 -240.5q0 -130 58.5 -238.5t161.5 -172.5t229 -64q112 0 207.5 51.5t158.5 139.5l207 -152q-94 -133 -243.5 -209.5
t-329.5 -76.5q-197 0 -360.5 97t-257 263t-93.5 362zM643 1741q0 59 43.5 100t104.5 41q63 0 106 -40.5t43 -100.5q0 -63 -42.5 -103.5t-106.5 -40.5q-61 0 -104.5 41t-43.5 103z" />
    <glyph glyph-name="cdotaccent" unicode="&#x10b;" horiz-adv-x="1064" 
d="M80 481q0 110 42 204t113 157.5t164.5 99t196.5 35.5q121 0 225.5 -48.5t171.5 -137.5l-198 -150q-33 45 -86 69.5t-113 24.5q-109 0 -188.5 -70.5t-79.5 -183.5q0 -114 80 -188t188 -74q59 0 112.5 25.5t86.5 70.5l200 -147q-67 -89 -172 -138.5t-227 -49.5
q-137 0 -254.5 61.5t-189.5 177.5t-72 262zM449 1286q0 59 43 100t104 41q63 0 106 -40.5t43 -100.5q0 -62 -42.5 -102.5t-106.5 -40.5q-61 0 -104 40.5t-43 102.5z" />
    <glyph glyph-name="Ccaron" unicode="&#x10c;" horiz-adv-x="1419" 
d="M90 702q0 198 93.5 364.5t257 263.5t360.5 97q177 0 325 -74t242 -204l-209 -150q-64 83 -156.5 132t-201.5 49q-126 0 -229 -64t-161.5 -173.5t-58.5 -240.5q0 -130 58.5 -238.5t161.5 -172.5t229 -64q112 0 207.5 51.5t158.5 139.5l207 -152q-94 -133 -243.5 -209.5
t-329.5 -76.5q-197 0 -360.5 97t-257 263t-93.5 362zM436 1903h193l155 -183l160 183h193l-226 -334h-252z" />
    <glyph glyph-name="ccaron" unicode="&#x10d;" horiz-adv-x="1064" 
d="M80 481q0 110 42 204t113 157.5t164.5 99t196.5 35.5q121 0 225.5 -48.5t171.5 -137.5l-198 -150q-33 45 -86 69.5t-113 24.5q-109 0 -188.5 -70.5t-79.5 -183.5q0 -114 80 -188t188 -74q59 0 112.5 25.5t86.5 70.5l200 -147q-67 -89 -172 -138.5t-227 -49.5
q-137 0 -254.5 61.5t-189.5 177.5t-72 262zM225 1448h193l155 -182l160 182h193l-226 -334h-251z" />
    <glyph glyph-name="Dcaron" unicode="&#x10e;" horiz-adv-x="1462" 
d="M176 0v1411h551q148 0 269 -54.5t201 -150t123.5 -224.5t43.5 -280q0 -150 -43.5 -278t-123.5 -222.5t-201 -148t-269 -53.5h-551zM377 1903h192l156 -183l160 183h192l-225 -334h-252zM438 240h289q121 0 207.5 63.5t127 166t40.5 232.5q0 131 -40.5 235.5t-127 169
t-207.5 64.5h-289v-931z" />
    <glyph glyph-name="dcaron" unicode="&#x10f;" horiz-adv-x="1333" 
d="M82 477q0 111 38 206t102 159t149.5 99.5t179.5 35.5q98 0 180 -39t121 -109v648h248v-1477h-248v129q-39 -70 -121.5 -109.5t-179.5 -39.5q-94 0 -179 35.5t-149.5 99t-102.5 157.5t-38 205zM340 481q0 -116 72.5 -189t179.5 -73q106 0 181 72.5t75 189.5t-76.5 187.5
t-179.5 70.5q-107 0 -179.5 -71.5t-72.5 -186.5zM1169 977q142 198 134 434h219q-8 -172 -65 -297.5t-134 -187.5z" />
    <glyph glyph-name="Dcroat" unicode="&#x110;" horiz-adv-x="1478" 
d="M6 600v180h193v631h546q198 0 343.5 -94t218.5 -253.5t73 -361.5q0 -201 -73 -358.5t-218.5 -250.5t-343.5 -93h-546v600h-193zM459 244h286q180 0 277.5 129t97.5 329q0 130 -40.5 233.5t-127 167.5t-207.5 64h-286v-387h282v-180h-282v-356z" />
    <glyph glyph-name="dcroat" unicode="&#x111;" horiz-adv-x="1241" 
d="M82 477q0 111 38 206t102 159t149.5 99.5t179.5 35.5q98 0 180 -39t121 -109v314h-305v157h305v177h248v-177h155v-157h-155v-1143h-248v129q-39 -70 -121.5 -109.5t-179.5 -39.5q-94 0 -179 35.5t-149.5 99t-102.5 157.5t-38 205zM340 481q0 -116 72.5 -189t179.5 -73
q106 0 181 72.5t75 189.5t-76.5 187.5t-179.5 70.5q-107 0 -179.5 -71.5t-72.5 -186.5z" />
    <glyph glyph-name="Emacron" unicode="&#x112;" horiz-adv-x="1171" 
d="M176 0v1411h873v-233h-613v-367h537v-231h-537v-347h633v-233h-893zM338 1653v170h551v-170h-551z" />
    <glyph glyph-name="emacron" unicode="&#x113;" horiz-adv-x="1132" 
d="M82 481q0 147 67.5 261t180 174.5t248.5 60.5q208 0 346.5 -137t138.5 -359q0 -40 -4 -86h-729q12 -94 84.5 -149.5t179.5 -55.5q76 0 142 32t98 91q34 -19 103 -56t87 -46q-61 -116 -182 -173.5t-264 -57.5q-136 0 -248.5 61.5t-180 177t-67.5 262.5zM297 1198v170h551
v-170h-551zM328 565h491q-13 96 -78.5 149.5t-160.5 53.5q-100 0 -169.5 -54t-82.5 -149z" />
    <glyph glyph-name="Ebreve" unicode="&#x114;" horiz-adv-x="1171" 
d="M176 0v1411h873v-233h-613v-367h537v-231h-537v-347h633v-233h-893zM307 1862h168q0 -113 105 -113q51 0 77.5 33t26.5 80h170q0 -121 -76 -194t-198 -73q-90 0 -153.5 39.5t-91.5 98t-28 129.5z" />
    <glyph glyph-name="ebreve" unicode="&#x115;" horiz-adv-x="1132" 
d="M82 481q0 147 67.5 261t180 174.5t248.5 60.5q208 0 346.5 -137t138.5 -359q0 -40 -4 -86h-729q12 -94 84.5 -149.5t179.5 -55.5q76 0 142 32t98 91q34 -19 103 -56t87 -46q-61 -116 -182 -173.5t-264 -57.5q-136 0 -248.5 61.5t-180 177t-67.5 262.5zM299 1407h168
q0 -113 104 -113q51 0 78 33t27 80h170q0 -121 -76.5 -193.5t-198.5 -72.5q-90 0 -153 39t-91 97.5t-28 129.5zM328 565h491q-13 96 -78.5 149.5t-160.5 53.5q-100 0 -169.5 -54t-82.5 -149z" />
    <glyph glyph-name="Edotaccent" unicode="&#x116;" horiz-adv-x="1171" 
d="M176 0v1411h873v-233h-613v-367h537v-231h-537v-347h633v-233h-893zM469 1741q0 59 43 100t104 41q63 0 106.5 -40.5t43.5 -100.5q0 -62 -43 -103t-107 -41q-61 0 -104 41t-43 103z" />
    <glyph glyph-name="edotaccent" unicode="&#x117;" horiz-adv-x="1132" 
d="M82 481q0 147 67.5 261t180 174.5t248.5 60.5q208 0 346.5 -137t138.5 -359q0 -40 -4 -86h-729q12 -94 84.5 -149.5t179.5 -55.5q76 0 142 32t98 91q34 -19 103 -56t87 -46q-61 -116 -182 -173.5t-264 -57.5q-136 0 -248.5 61.5t-180 177t-67.5 262.5zM328 565h491
q-13 96 -78.5 149.5t-160.5 53.5q-100 0 -169.5 -54t-82.5 -149zM424 1286q0 59 43 100t104 41q63 0 106.5 -40.5t43.5 -100.5q0 -62 -43 -102.5t-107 -40.5q-61 0 -104 40.5t-43 102.5z" />
    <glyph glyph-name="Eogonek" unicode="&#x118;" horiz-adv-x="1171" 
d="M176 0v1411h873v-233h-613v-367h537v-231h-537v-347h633v-233l-76 -197q-10 -29 -1 -56.5t36 -37.5q28 -8 53 3.5t35 37.5q4 11 6.5 24t3.5 20v7l142 9q1 -113 -60.5 -179.5t-148.5 -66.5q-89 0 -152 63t-63 146q0 61 18 94l72 133h-758z" />
    <glyph glyph-name="eogonek" unicode="&#x119;" horiz-adv-x="1134" 
d="M82 481q0 147 67.5 261t180 174.5t248.5 60.5q208 0 346.5 -137t138.5 -359q0 -40 -4 -86h-729q12 -94 84.5 -149.5t179.5 -55.5q76 0 142 32t98 91l190 -102q-20 -31 -54.5 -71.5t-60 -72.5t-60 -101t-63.5 -163q-10 -29 -1 -56.5t36 -37.5q28 -8 53 3.5t35 37.5
q4 11 7 24t4 20v7l141 9q1 -113 -60.5 -179.5t-148.5 -66.5q-89 0 -152 63t-63 146q0 61 18 94l70 131q-71 -18 -147 -18q-136 0 -248.5 61.5t-180 177t-67.5 262.5zM328 565h491q-13 96 -78.5 149.5t-160.5 53.5q-100 0 -169.5 -54t-82.5 -149z" />
    <glyph glyph-name="Ecaron" unicode="&#x11a;" horiz-adv-x="1171" 
d="M176 0v1411h873v-233h-613v-367h537v-231h-537v-347h633v-233h-893zM258 1903h193l155 -183l160 183h192l-225 -334h-252z" />
    <glyph glyph-name="ecaron" unicode="&#x11b;" horiz-adv-x="1132" 
d="M82 481q0 147 67.5 261t180 174.5t248.5 60.5q208 0 346.5 -137t138.5 -359q0 -40 -4 -86h-729q12 -94 84.5 -149.5t179.5 -55.5q76 0 142 32t98 91q34 -19 103 -56t87 -46q-61 -116 -182 -173.5t-264 -57.5q-136 0 -248.5 61.5t-180 177t-67.5 262.5zM223 1448h193
l155 -182l160 182h193l-226 -334h-252zM328 565h491q-13 96 -78.5 149.5t-160.5 53.5q-100 0 -169.5 -54t-82.5 -149z" />
    <glyph glyph-name="Gcircumflex" unicode="&#x11c;" horiz-adv-x="1548" 
d="M90 702q0 198 95 364.5t260.5 263.5t363.5 97q152 0 285 -57t227 -158l-193 -168q-135 138 -319 138q-192 0 -324.5 -140.5t-132.5 -339.5q0 -130 60 -240t165.5 -175.5t231.5 -65.5q95 0 180.5 35t141.5 103t59 155h-387v215h688q0 -190 -49 -334t-140 -234.5
t-215 -135.5t-278 -45q-148 0 -282 57.5t-229.5 154.5t-151.5 230t-56 280zM430 1575l223 334h252l225 -334h-192l-160 180l-155 -180h-193z" />
    <glyph glyph-name="gcircumflex" unicode="&#x11d;" horiz-adv-x="1251" 
d="M82 475q0 148 68 264.5t176.5 177t234.5 60.5q97 0 181.5 -40t123.5 -110v129h244v-819q0 -311 -139 -462.5t-396 -151.5q-149 0 -271 75.5t-185 206.5q28 14 102 52t101 51q30 -69 103 -113.5t150 -44.5q71 0 124.5 20.5t86.5 55.5t53 84.5t25.5 103.5t1.5 117
q-36 -70 -122 -110.5t-183 -40.5q-126 0 -234.5 60t-176.5 174.5t-68 260.5zM276 1120l224 334h252l225 -334h-193l-159 180l-156 -180h-193zM342 479q0 -117 75 -189.5t183 -72.5q102 0 181 73t79 189q0 119 -76 188.5t-184 69.5q-107 0 -182.5 -72.5t-75.5 -185.5z" />
    <glyph glyph-name="Gbreve" unicode="&#x11e;" horiz-adv-x="1548" 
d="M90 702q0 198 95 364.5t260.5 263.5t363.5 97q152 0 285 -57t227 -158l-193 -168q-135 138 -319 138q-192 0 -324.5 -140.5t-132.5 -339.5q0 -130 60 -240t165.5 -175.5t231.5 -65.5q95 0 180.5 35t141.5 103t59 155h-387v215h688q0 -190 -49 -334t-140 -234.5
t-215 -135.5t-278 -45q-148 0 -282 57.5t-229.5 154.5t-151.5 230t-56 280zM506 1862h168q0 -113 104 -113q51 0 78 33t27 80h170q0 -121 -76.5 -194t-198.5 -73q-68 0 -121.5 22.5t-85.5 60.5t-48.5 85t-16.5 99z" />
    <glyph glyph-name="gbreve" unicode="&#x11f;" horiz-adv-x="1251" 
d="M82 475q0 148 68 264.5t176.5 177t234.5 60.5q97 0 181.5 -40t123.5 -110v129h244v-819q0 -311 -139 -462.5t-396 -151.5q-149 0 -271 75.5t-185 206.5q28 14 102 52t101 51q30 -69 103 -113.5t150 -44.5q71 0 124.5 20.5t86.5 55.5t53 84.5t25.5 103.5t1.5 117
q-36 -70 -122 -110.5t-183 -40.5q-126 0 -234.5 60t-176.5 174.5t-68 260.5zM342 479q0 -117 75 -189.5t183 -72.5q102 0 181 73t79 189q0 119 -76 188.5t-184 69.5q-107 0 -182.5 -72.5t-75.5 -185.5zM352 1407h168q0 -113 105 -113q51 0 77.5 33t26.5 80h170
q0 -121 -76 -193.5t-198 -72.5q-133 0 -203 78t-70 188z" />
    <glyph glyph-name="Gdotaccent" unicode="&#x120;" horiz-adv-x="1548" 
d="M90 702q0 198 95 364.5t260.5 263.5t363.5 97q152 0 285 -57t227 -158l-193 -168q-135 138 -319 138q-192 0 -324.5 -140.5t-132.5 -339.5q0 -130 60 -240t165.5 -175.5t231.5 -65.5q95 0 180.5 35t141.5 103t59 155h-387v215h688q0 -190 -49 -334t-140 -234.5
t-215 -135.5t-278 -45q-148 0 -282 57.5t-229.5 154.5t-151.5 230t-56 280zM631 1741q0 59 43 100t104 41q63 0 106.5 -40.5t43.5 -100.5q0 -62 -43 -103t-107 -41q-61 0 -104 41t-43 103z" />
    <glyph glyph-name="gdotaccent" unicode="&#x121;" horiz-adv-x="1251" 
d="M82 475q0 148 68 264.5t176.5 177t234.5 60.5q97 0 181.5 -40t123.5 -110v129h244v-819q0 -311 -139 -462.5t-396 -151.5q-149 0 -271 75.5t-185 206.5q28 14 102 52t101 51q30 -69 103 -113.5t150 -44.5q71 0 124.5 20.5t86.5 55.5t53 84.5t25.5 103.5t1.5 117
q-36 -70 -122 -110.5t-183 -40.5q-126 0 -234.5 60t-176.5 174.5t-68 260.5zM342 479q0 -117 75 -189.5t183 -72.5q102 0 181 73t79 189q0 119 -76 188.5t-184 69.5q-107 0 -182.5 -72.5t-75.5 -185.5zM477 1286q0 59 43.5 100t104.5 41q63 0 106 -40.5t43 -100.5
q0 -62 -42.5 -102.5t-106.5 -40.5q-61 0 -104.5 40.5t-43.5 102.5z" />
    <glyph glyph-name="Gcommaaccent" unicode="&#x122;" horiz-adv-x="1548" 
d="M90 702q0 198 95 364.5t260.5 263.5t363.5 97q152 0 285 -57t227 -158l-193 -168q-135 138 -319 138q-192 0 -324.5 -140.5t-132.5 -339.5q0 -130 60 -240t165.5 -175.5t231.5 -65.5q95 0 180.5 35t141.5 103t59 155h-387v215h688q0 -190 -49 -334t-140 -234.5
t-215 -135.5t-278 -45q-148 0 -282 57.5t-229.5 154.5t-151.5 230t-56 280zM614 -502q66 92 90.5 173.5t20.5 213.5h219q-15 -298 -199 -446z" />
    <glyph glyph-name="gcommaaccent" unicode="&#x123;" horiz-adv-x="1251" 
d="M82 475q0 148 68 264.5t176.5 177t234.5 60.5q97 0 181.5 -40t123.5 -110v129h244v-819q0 -311 -139 -462.5t-396 -151.5q-149 0 -271 75.5t-185 206.5q28 14 102 52t101 51q30 -69 103 -113.5t150 -44.5q71 0 124.5 20.5t86.5 55.5t53 84.5t25.5 103.5t1.5 117
q-36 -70 -122 -110.5t-183 -40.5q-126 0 -234.5 60t-176.5 174.5t-68 260.5zM342 479q0 -117 75 -189.5t183 -72.5q102 0 181 73t79 189q0 119 -76 188.5t-184 69.5q-107 0 -182.5 -72.5t-75.5 -185.5zM453 1137q14 293 198 444l131 -59q-65 -92 -89.5 -173.5t-18.5 -211.5
h-221z" />
    <glyph glyph-name="Hcircumflex" unicode="&#x124;" horiz-adv-x="1441" 
d="M176 0v1411h260v-592h565v592h265v-1411h-265v584h-565v-584h-260zM371 1575l223 334h252l225 -334h-192l-160 180l-156 -180h-192z" />
    <glyph glyph-name="hcircumflex" unicode="&#x125;" horiz-adv-x="1202" 
d="M-80 1565l223 333h252l226 -333h-193l-160 180l-155 -180h-193zM141 0v1477h250v-668q31 80 122 124t175 44q185 0 285 -116.5t100 -328.5v-532h-250v520q0 98 -60 155.5t-142 57.5q-42 0 -80.5 -12t-73 -37t-55.5 -70t-21 -104v-510h-250z" />
    <glyph glyph-name="Hbar" unicode="&#x126;" horiz-adv-x="1466" 
d="M43 1040v154h145v217h263v-217h563v217h264v-217h145v-154h-145v-1040h-264v582h-563v-582h-263v1040h-145zM451 819h563v221h-563v-221z" />
    <glyph glyph-name="hbar" unicode="&#x127;" horiz-adv-x="1189" 
d="M-10 1143v157h151v177h250v-177h291v-157h-291v-334q21 55 72.5 94.5t106 56.5t106.5 17q185 0 285 -116.5t100 -328.5v-532h-252v520q0 99 -56 156t-137 57q-41 0 -79 -12t-72 -37t-54 -70t-20 -104v-510h-250v1143h-151z" />
    <glyph glyph-name="Itilde" unicode="&#x128;" horiz-adv-x="612" 
d="M18 1610q7 134 65 195t132 61q38 0 72 -21t61 -42t47 -21q17 0 36 20.5t20 63.5h143q-4 -69 -24 -120.5t-50 -78.5t-61.5 -40t-63.5 -13q-29 0 -57.5 13t-47 29t-39.5 29t-36 13q-16 0 -34 -22t-19 -66h-144zM176 0v1411h260v-1411h-260z" />
    <glyph glyph-name="itilde" unicode="&#x129;" horiz-adv-x="530" 
d="M-23 1155q7 134 65 195t132 61q38 0 72 -21t61 -42t47 -21q17 0 36 20.5t20 63.5h143q-4 -69 -24 -120.5t-50 -78.5t-61.5 -40t-63.5 -13q-29 0 -57.5 13t-47 29t-39.5 29t-36 13q-16 0 -34 -22t-19 -66h-144zM141 0v956h248v-956h-248z" />
    <glyph glyph-name="Imacron" unicode="&#x12a;" horiz-adv-x="612" 
d="M31 1653v170h551v-170h-551zM176 0v1411h260v-1411h-260z" />
    <glyph glyph-name="imacron" unicode="&#x12b;" horiz-adv-x="530" 
d="M-8 1198v170h551v-170h-551zM141 0v956h248v-956h-248z" />
    <glyph glyph-name="Ibreve" unicode="&#x12c;" horiz-adv-x="612" 
d="M33 1862h168q0 -113 104 -113q51 0 78 33t27 80h170q0 -121 -76.5 -194t-198.5 -73q-68 0 -121.5 22.5t-85.5 60.5t-48.5 85t-16.5 99zM176 0v1411h260v-1411h-260z" />
    <glyph glyph-name="ibreve" unicode="&#x12d;" horiz-adv-x="530" 
d="M-8 1407h168q0 -113 104 -113q51 0 78 33t27 80h170q0 -121 -76.5 -193.5t-198.5 -72.5q-90 0 -153 39t-91 97.5t-28 129.5zM141 0v956h248v-956h-248z" />
    <glyph glyph-name="Iogonek" unicode="&#x12e;" horiz-adv-x="612" 
d="M86 -227q0 61 18 94l72 133v1411h260v-1411h-129l-71 -197q-10 -29 -1.5 -56.5t35.5 -37.5q28 -8 53 3.5t35 37.5q4 11 7 24t3 20l1 7l141 9q1 -113 -60.5 -179.5t-148.5 -66.5q-89 0 -152 63t-63 146z" />
    <glyph glyph-name="iogonek" unicode="&#x12f;" horiz-adv-x="530" 
d="M53 -227q0 59 19 94l69 133v956h248v-956h-115l-71 -197q-10 -29 -1 -56.5t36 -37.5q28 -8 53 3.5t35 37.5q4 11 6.5 24t3.5 20v7l141 9q1 -113 -60.5 -179.5t-148.5 -66.5q-89 0 -152 63t-63 146zM104 1327q0 63 48 106.5t114 43.5q65 0 111.5 -43.5t46.5 -106.5
q0 -64 -46.5 -107.5t-111.5 -43.5q-67 0 -114.5 43.5t-47.5 107.5z" />
    <glyph glyph-name="Idotaccent" unicode="&#x130;" horiz-adv-x="612" 
d="M158 1741q0 59 43 100t104 41q63 0 106.5 -40.5t43.5 -100.5q0 -62 -43 -103t-107 -41q-61 0 -104 41t-43 103zM176 0v1411h260v-1411h-260z" />
    <glyph glyph-name="dotlessi" unicode="&#x131;" horiz-adv-x="530" 
d="M141 0v956h248v-956h-248z" />
    <glyph glyph-name="IJ" unicode="&#x132;" horiz-adv-x="1226" 
d="M176 0v1411h260v-1411h-260zM410 -446l24 237q61 -20 164 -20q97 0 143.5 62t46.5 161v1417h263v-1417q0 -100 -25 -182.5t-77 -148.5t-141.5 -103t-209.5 -37q-60 0 -188 31z" />
    <glyph glyph-name="ij" unicode="&#x133;" horiz-adv-x="1064" 
d="M104 1327q0 63 48 106.5t114 43.5q65 0 111.5 -43.5t46.5 -106.5q0 -64 -46.5 -107.5t-111.5 -43.5q-67 0 -114.5 43.5t-47.5 107.5zM141 0v956h248v-956h-248zM410 -248h120q146 0 142 180v1024h252v-1019q0 -198 -83.5 -306t-273.5 -108h-157v229zM637 1327
q0 62 47.5 106t112.5 44q67 0 113 -43.5t46 -106.5q0 -64 -45.5 -107.5t-113.5 -43.5q-65 0 -112.5 43.5t-47.5 107.5z" />
    <glyph glyph-name="Jcircumflex" unicode="&#x134;" horiz-adv-x="614" 
d="M-203 -446l25 237q61 -20 164 -20q97 0 143.5 62t46.5 161v1417h262v-1417q0 -79 -15 -147.5t-49.5 -128.5t-86 -103t-128.5 -67.5t-173 -24.5q-61 0 -189 31zM-47 1575l223 334h252l225 -334h-192l-160 180l-156 -180h-192z" />
    <glyph glyph-name="jcircumflex" unicode="&#x135;" horiz-adv-x="534" 
d="M-121 -248h121q145 0 141 180v1024h252v-1019q0 -198 -83 -306t-273 -108h-158v229zM-68 1120l224 334h252l225 -334h-193l-159 180l-156 -180h-193z" />
    <glyph glyph-name="Kcommaaccent" unicode="&#x136;" horiz-adv-x="1224" 
d="M176 0v1411h264v-514l379 514h307l-536 -700l663 -711h-342l-471 522v-522h-264zM457 -502q65 91 89.5 173t20.5 214h219q-15 -298 -198 -446z" />
    <glyph glyph-name="kcommaaccent" unicode="&#x137;" horiz-adv-x="1062" 
d="M141 0v1477h248v-807l264 286h324l-402 -419l488 -537h-313l-361 410v-410h-248zM375 -502q65 91 89.5 173t20.5 214h220q-15 -298 -199 -446z" />
    <glyph glyph-name="kgreenlandic" unicode="&#x138;" horiz-adv-x="1019" 
d="M141 0v956h248v-315l266 315h301l-415 -471l471 -485h-316l-307 326v-326h-248z" />
    <glyph glyph-name="Lacute" unicode="&#x139;" horiz-adv-x="1036" 
d="M176 0v1411h262v-1178h545v-233h-807zM186 1569l215 334h263l-283 -334h-195z" />
    <glyph glyph-name="lacute" unicode="&#x13a;" horiz-adv-x="532" 
d="M141 0v1477h250v-1477h-250zM152 1569l215 334h262l-283 -334h-194z" />
    <glyph glyph-name="Lcommaaccent" unicode="&#x13b;" horiz-adv-x="1036" 
d="M176 0v1411h262v-1178h545v-233h-807zM352 -502q66 92 90.5 173.5t20.5 213.5h219q-15 -298 -199 -446z" />
    <glyph glyph-name="lcommaaccent" unicode="&#x13c;" horiz-adv-x="532" 
d="M45 -502q66 92 90.5 173.5t20.5 213.5h219q-15 -298 -199 -446zM141 0v1477h250v-1477h-250z" />
    <glyph glyph-name="Lcaron" unicode="&#x13d;" horiz-adv-x="1040" 
d="M176 0v1411h262v-1178h545v-233h-807zM575 977q142 198 134 434h219q-8 -172 -65 -297.5t-134 -187.5z" />
    <glyph glyph-name="lcaron" unicode="&#x13e;" horiz-adv-x="532" 
d="M141 0v1477h250v-1477h-250zM461 1042q141 196 133 435h219q-8 -172 -65 -298t-134 -188z" />
    <glyph glyph-name="Ldot" unicode="&#x13f;" horiz-adv-x="1036" 
d="M176 0v1411h262v-1178h545v-233h-807zM543 641q0 67 46.5 111.5t112.5 44.5q68 0 116 -44.5t48 -111.5t-48 -111.5t-116 -44.5q-66 0 -112.5 44.5t-46.5 111.5z" />
    <glyph glyph-name="ldot" unicode="&#x140;" horiz-adv-x="806" 
d="M141 0v1477h250v-1477h-250zM508 641q0 66 47 111t113 45q68 0 115.5 -44.5t47.5 -111.5t-47.5 -111.5t-115.5 -44.5q-66 0 -113 45t-47 111z" />
    <glyph glyph-name="Lslash" unicode="&#x141;" horiz-adv-x="1048" 
d="M47 532v175l141 90v614h263v-450l198 122v-174l-198 -123v-548h544v-238h-807v623z" />
    <glyph glyph-name="lslash" unicode="&#x142;" horiz-adv-x="598" 
d="M27 504v172l163 102v699h250v-541l170 106v-172l-170 -106v-764h-250v606z" />
    <glyph glyph-name="Nacute" unicode="&#x143;" horiz-adv-x="1396" 
d="M176 0v1411h244l538 -917v917h263v-1411h-240l-545 928v-928h-260zM559 1569l215 334h262l-282 -334h-195z" />
    <glyph glyph-name="nacute" unicode="&#x144;" 
d="M141 0v956h250v-141q39 74 119 118t166 44q169 0 262.5 -106t93.5 -306v-565h-250v520q0 102 -49 157.5t-133 55.5q-93 0 -151 -53t-58 -170v-510h-250zM438 1114l215 334h262l-282 -334h-195z" />
    <glyph glyph-name="Ncommaaccent" unicode="&#x145;" horiz-adv-x="1396" 
d="M176 0v1411h244l538 -917v917h263v-1411h-240l-545 928v-928h-260zM492 -502q65 91 89.5 173t20.5 214h219q-15 -298 -198 -446z" />
    <glyph glyph-name="ncommaaccent" unicode="&#x146;" 
d="M141 0v956h250v-141q39 74 119 118t166 44q169 0 262.5 -106t93.5 -306v-565h-250v520q0 102 -49 157.5t-133 55.5q-93 0 -151 -53t-58 -170v-510h-250zM377 -502q65 91 89.5 173t20.5 214h220q-15 -298 -199 -446z" />
    <glyph glyph-name="Ncaron" unicode="&#x147;" horiz-adv-x="1396" 
d="M176 0v1411h244l538 -917v917h263v-1411h-240l-545 928v-928h-260zM348 1903h193l155 -183l160 183h193l-226 -334h-252z" />
    <glyph glyph-name="ncaron" unicode="&#x148;" 
d="M141 0v956h250v-141q39 74 119 118t166 44q169 0 262.5 -106t93.5 -306v-565h-250v520q0 102 -49 157.5t-133 55.5q-93 0 -151 -53t-58 -170v-510h-250zM231 1448h193l156 -182l159 182h193l-225 -334h-252z" />
    <glyph glyph-name="napostrophe" unicode="&#x149;" 
d="M-143 1022q58 78 76 160t4 190h225q2 -258 -160 -393zM141 0v956h250v-141q39 74 119 118t166 44q169 0 262.5 -106t93.5 -306v-565h-250v520q0 102 -49 157.5t-133 55.5q-93 0 -151 -53t-58 -170v-510h-250z" />
    <glyph glyph-name="Eng" unicode="&#x14a;" horiz-adv-x="1394" 
d="M176 0v1411h244l536 -934v934h263v-1391q0 -83 -13.5 -154t-46.5 -135.5t-83 -109.5t-128 -71.5t-178 -26.5q-68 0 -190 31l26 243q125 -31 215 -16q70 13 112 79.5t42 143.5l-537 920v-924h-262z" />
    <glyph glyph-name="eng" unicode="&#x14b;" horiz-adv-x="1163" 
d="M141 0v956h250v-141q39 74 119 118t166 44q170 0 263.5 -106t92.5 -306v-512q0 -78 -13.5 -145t-45 -127t-79.5 -102t-122 -66.5t-168 -24.5q-46 0 -137 21l25 229q45 -14 112 -14q62 0 103.5 31.5t58 78t16.5 105.5v481q0 102 -49 157.5t-133 55.5q-93 0 -151 -53
t-58 -170v-510h-250z" />
    <glyph glyph-name="Omacron" unicode="&#x14c;" horiz-adv-x="1611" 
d="M90 702q0 198 94.5 364.5t259 263.5t361.5 97t362 -97t260 -263.5t95 -364.5q0 -196 -95 -362t-260 -263t-362 -97t-361.5 97t-259 263t-94.5 362zM350 702q0 -194 132 -329t323 -135q190 0 322.5 135t132.5 329t-132.5 330.5t-322.5 136.5q-191 0 -323 -136.5
t-132 -330.5zM530 1653v170h551v-170h-551z" />
    <glyph glyph-name="omacron" unicode="&#x14d;" horiz-adv-x="1159" 
d="M82 481q0 147 68 261t181 174.5t249 60.5q135 0 248 -60.5t181 -175t68 -260.5t-68 -261.5t-181 -176.5t-248 -61q-136 0 -249 61t-181 176t-68 262zM303 1198v170h551v-170h-551zM330 481q0 -114 72 -185t178 -71q105 0 177 71t72 185q0 112 -72 181t-177 69
t-177.5 -69.5t-72.5 -180.5z" />
    <glyph glyph-name="Obreve" unicode="&#x14e;" horiz-adv-x="1611" 
d="M90 702q0 198 94.5 364.5t259 263.5t361.5 97t362 -97t260 -263.5t95 -364.5q0 -196 -95 -362t-260 -263t-362 -97t-361.5 97t-259 263t-94.5 362zM350 702q0 -194 132 -329t323 -135q190 0 322.5 135t132.5 329t-132.5 330.5t-322.5 136.5q-191 0 -323 -136.5
t-132 -330.5zM532 1862h168q0 -113 105 -113q51 0 77.5 33t26.5 80h170q0 -121 -76 -194t-198 -73q-90 0 -153.5 39.5t-91.5 98t-28 129.5z" />
    <glyph glyph-name="obreve" unicode="&#x14f;" horiz-adv-x="1159" 
d="M82 481q0 147 68 261t181 174.5t249 60.5q135 0 248 -60.5t181 -175t68 -260.5t-68 -261.5t-181 -176.5t-248 -61q-136 0 -249 61t-181 176t-68 262zM305 1407h168q0 -113 105 -113q51 0 77.5 33t26.5 80h170q0 -121 -76 -193.5t-198 -72.5q-133 0 -203 78t-70 188z
M330 481q0 -114 72 -185t178 -71q105 0 177 71t72 185q0 112 -72 181t-177 69t-177.5 -69.5t-72.5 -180.5z" />
    <glyph glyph-name="Ohungarumlaut" unicode="&#x150;" horiz-adv-x="1611" 
d="M90 702q0 198 94.5 364.5t259 263.5t361.5 97t362 -97t260 -263.5t95 -364.5q0 -196 -95 -362t-260 -263t-362 -97t-361.5 97t-259 263t-94.5 362zM350 702q0 -194 132 -329t323 -135q190 0 322.5 135t132.5 329t-132.5 330.5t-322.5 136.5q-191 0 -323 -136.5
t-132 -330.5zM557 1569l203 334h215l-225 -334h-193zM848 1569l227 334h219l-247 -334h-199z" />
    <glyph glyph-name="ohungarumlaut" unicode="&#x151;" horiz-adv-x="1159" 
d="M82 481q0 147 68 261t181 174.5t249 60.5q135 0 248 -60.5t181 -175t68 -260.5t-68 -261.5t-181 -176.5t-248 -61q-136 0 -249 61t-181 176t-68 262zM328 1114l202 334h215l-225 -334h-192zM330 481q0 -114 72 -185t178 -71q105 0 177 71t72 185q0 112 -72 181t-177 69
t-177.5 -69.5t-72.5 -180.5zM618 1114l228 334h219l-248 -334h-199z" />
    <glyph glyph-name="OE" unicode="&#x152;" horiz-adv-x="2252" 
d="M90 702q0 198 94.5 364.5t258.5 263.5t360 97q133 0 251.5 -48t205.5 -140v172h870v-237h-610v-363h534v-233h-534v-340h630v-238h-890v166q-88 -88 -207 -137t-250 -49q-147 0 -279.5 57.5t-227 154.5t-150.5 230t-56 280zM352 702q0 -126 59.5 -232.5t163 -168
t228.5 -61.5q193 0 323.5 137t130.5 334q-3 190 -134.5 323t-319.5 133q-125 0 -229 -62.5t-163 -169.5t-59 -233z" />
    <glyph glyph-name="oe" unicode="&#x153;" horiz-adv-x="1882" 
d="M82 479q0 147 68 261.5t181 175.5t249 61q109 0 206.5 -43.5t165.5 -120.5q69 78 167 121t210 43q208 0 336 -126t143 -331q5 -52 2 -125h-731q13 -95 85 -150t179 -55q76 0 142 32t98 91q31 -16 97 -51t96 -51q-62 -116 -184 -173.5t-263 -57.5q-113 0 -210.5 43
t-166.5 122q-68 -78 -165 -121.5t-207 -43.5q-136 0 -249 61t-181 176t-68 262zM330 479q0 -114 72 -185t178 -71q105 0 177 71t72 185q0 112 -72 182t-177 70t-177.5 -70t-72.5 -182zM1077 565h492q-13 95 -79 149t-161 54q-100 0 -168.5 -54t-83.5 -149z" />
    <glyph glyph-name="Racute" unicode="&#x154;" horiz-adv-x="1292" 
d="M176 0v1411h565q112 0 201 -39t142 -104.5t80.5 -145.5t27.5 -168q0 -78 -21.5 -149.5t-63.5 -132t-112 -103t-161 -57.5l360 -512h-315l-332 502h-109v-502h-262zM438 735h283q96 0 147.5 66t51.5 153q0 86 -50 155t-141 69h-291v-443zM457 1569l215 334h262l-283 -334
h-194z" />
    <glyph glyph-name="racute" unicode="&#x155;" horiz-adv-x="841" 
d="M141 0v956h250v-225q35 123 109 184.5t162 61.5q89 0 157 -35l-43 -225q-57 26 -145 26q-240 0 -240 -405v-338h-250zM156 1114l215 334h262l-283 -334h-194z" />
    <glyph glyph-name="Rcommaaccent" unicode="&#x156;" horiz-adv-x="1292" 
d="M176 0v1411h565q112 0 201 -39t142 -104.5t80.5 -145.5t27.5 -168q0 -78 -21.5 -149.5t-63.5 -132t-112 -103t-161 -57.5l360 -512h-315l-332 502h-109v-502h-262zM438 735h283q96 0 147.5 66t51.5 153q0 86 -50 155t-141 69h-291v-443zM475 -502q66 92 90.5 173.5
t20.5 213.5h219q-15 -298 -199 -446z" />
    <glyph glyph-name="rcommaaccent" unicode="&#x157;" horiz-adv-x="841" 
d="M49 -502q66 92 90.5 173.5t20.5 213.5h219q-15 -298 -199 -446zM141 0v956h250v-225q35 123 109 184.5t162 61.5q89 0 157 -35l-43 -225q-57 26 -145 26q-240 0 -240 -405v-338h-250z" />
    <glyph glyph-name="Rcaron" unicode="&#x158;" horiz-adv-x="1292" 
d="M176 0v1411h565q112 0 201 -39t142 -104.5t80.5 -145.5t27.5 -168q0 -78 -21.5 -149.5t-63.5 -132t-112 -103t-161 -57.5l360 -512h-315l-332 502h-109v-502h-262zM289 1903h192l156 -183l160 183h192l-225 -334h-252zM438 735h283q96 0 147.5 66t51.5 153q0 86 -50 155
t-141 69h-291v-443z" />
    <glyph glyph-name="rcaron" unicode="&#x159;" horiz-adv-x="841" 
d="M90 1448h193l155 -182l160 182h193l-226 -334h-252zM141 0v956h250v-225q35 123 109 184.5t162 61.5q89 0 157 -35l-43 -225q-57 26 -145 26q-240 0 -240 -405v-338h-250z" />
    <glyph glyph-name="Sacute" unicode="&#x15a;" horiz-adv-x="1181" 
d="M94 412h262q3 -81 69 -140t175 -59q103 0 166 48t68 122q4 70 -44 117t-151 75l-174 46q-356 104 -356 393q0 121 64.5 216t172.5 146t238 51q204 0 336.5 -116t132.5 -310h-262q0 84 -57 134.5t-154 50.5q-90 0 -150.5 -46t-60.5 -120q0 -117 168 -162l174 -51
q114 -31 194 -79.5t121.5 -106.5t58 -118t11.5 -126q-6 -123 -76 -215.5t-179.5 -138.5t-240.5 -46q-222 0 -364 125.5t-142 309.5zM489 1569l216 334h262l-283 -334h-195z" />
    <glyph glyph-name="sacute" unicode="&#x15b;" horiz-adv-x="929" 
d="M74 301h233q5 -52 56.5 -88t119.5 -33q53 2 89 28.5t36 67.5q3 67 -104 91l-131 32q-72 20 -123.5 46.5t-79.5 53t-44 61.5t-20 64t-4 68q0 115 105 200t248 85q71 0 133.5 -17t116.5 -51t86.5 -94t35.5 -139h-237q-3 49 -42 73.5t-87 24.5q-52 0 -86.5 -22t-34.5 -72
q0 -28 28 -48.5t72 -31.5l160 -39q63 -16 110.5 -44.5t73.5 -59t41.5 -66.5t20 -63t4.5 -54q0 -93 -57 -161.5t-144 -100.5t-190 -32q-151 0 -266.5 87t-118.5 234zM334 1114l215 334h262l-283 -334h-194z" />
    <glyph glyph-name="Scircumflex" unicode="&#x15c;" horiz-adv-x="1181" 
d="M94 412h262q3 -81 69 -140t175 -59q103 0 166 48t68 122q4 70 -44 117t-151 75l-174 46q-356 104 -356 393q0 121 64.5 216t172.5 146t238 51q204 0 336.5 -116t132.5 -310h-262q0 84 -57 134.5t-154 50.5q-90 0 -150.5 -46t-60.5 -120q0 -117 168 -162l174 -51
q114 -31 194 -79.5t121.5 -106.5t58 -118t11.5 -126q-6 -123 -76 -215.5t-179.5 -138.5t-240.5 -46q-222 0 -364 125.5t-142 309.5zM246 1575l223 334h252l225 -334h-192l-160 180l-156 -180h-192z" />
    <glyph glyph-name="scircumflex" unicode="&#x15d;" horiz-adv-x="929" 
d="M74 301h233q5 -52 56.5 -88t119.5 -33q53 2 89 28.5t36 67.5q3 67 -104 91l-131 32q-72 20 -123.5 46.5t-79.5 53t-44 61.5t-20 64t-4 68q0 115 105 200t248 85q71 0 133.5 -17t116.5 -51t86.5 -94t35.5 -139h-237q-3 49 -42 73.5t-87 24.5q-52 0 -86.5 -22t-34.5 -72
q0 -28 28 -48.5t72 -31.5l160 -39q63 -16 110.5 -44.5t73.5 -59t41.5 -66.5t20 -63t4.5 -54q0 -93 -57 -161.5t-144 -100.5t-190 -32q-151 0 -266.5 87t-118.5 234zM113 1120l223 334h252l225 -334h-192l-160 180l-156 -180h-192z" />
    <glyph glyph-name="Scedilla" unicode="&#x15e;" horiz-adv-x="1185" 
d="M96 412h262q3 -81 69 -140t175 -59q103 0 166 48t68 122q4 70 -44 117t-151 75l-174 46q-356 104 -356 393q0 121 64.5 216t172.5 146t238 51q204 0 336.5 -116t132.5 -310h-262q0 84 -57 134.5t-154 50.5q-90 0 -150.5 -46t-60.5 -120q0 -117 168 -162l174 -51
q114 -31 194 -79.5t121.5 -106.5t58 -118t11.5 -126q-9 -162 -121.5 -265.5t-282.5 -127.5l64 -117q18 -33 18 -94q0 -83 -63 -146t-152 -63q-87 0 -148.5 66.5t-60.5 179.5l142 -9q0 -26 10 -51q10 -26 35 -37.5t53 -3.5q27 10 36 37.5t-1 56.5l-66 177q-207 12 -336 134.5
t-129 297.5z" />
    <glyph glyph-name="scedilla" unicode="&#x15f;" horiz-adv-x="931" 
d="M76 301h233q5 -52 56.5 -88t119.5 -33q53 2 89 28.5t36 67.5q3 67 -104 91l-131 32q-72 20 -123.5 46.5t-79.5 53t-44 61.5t-20 64t-4 68q0 115 105 200t248 85q71 0 133.5 -17t116.5 -51t86.5 -94t35.5 -139h-237q-3 49 -42 73.5t-87 24.5q-52 0 -86.5 -22t-34.5 -72
q0 -28 28 -48.5t72 -31.5l160 -39q63 -16 110.5 -44.5t73.5 -59t41.5 -66.5t20 -63t4.5 -54q0 -109 -73 -180.5t-189 -97.5l69 -129q19 -35 19 -94q0 -83 -63 -146t-152 -63q-87 0 -148.5 66.5t-60.5 179.5l141 -9q1 -26 11 -51q10 -26 35 -37.5t53 -3.5q27 10 35.5 37.5
t-1.5 56.5l-65 177h-2q-151 0 -266.5 87t-118.5 234z" />
    <glyph glyph-name="Scaron" unicode="&#x160;" horiz-adv-x="1181" 
d="M94 412h262q3 -81 69 -140t175 -59q103 0 166 48t68 122q4 70 -44 117t-151 75l-174 46q-356 104 -356 393q0 121 64.5 216t172.5 146t238 51q204 0 336.5 -116t132.5 -310h-262q0 84 -57 134.5t-154 50.5q-90 0 -150.5 -46t-60.5 -120q0 -117 168 -162l174 -51
q114 -31 194 -79.5t121.5 -106.5t58 -118t11.5 -126q-6 -123 -76 -215.5t-179.5 -138.5t-240.5 -46q-222 0 -364 125.5t-142 309.5zM246 1903h192l156 -183l160 183h192l-225 -334h-252z" />
    <glyph glyph-name="scaron" unicode="&#x161;" horiz-adv-x="929" 
d="M74 301h233q5 -52 56.5 -88t119.5 -33q53 2 89 28.5t36 67.5q3 67 -104 91l-131 32q-72 20 -123.5 46.5t-79.5 53t-44 61.5t-20 64t-4 68q0 115 105 200t248 85q71 0 133.5 -17t116.5 -51t86.5 -94t35.5 -139h-237q-3 49 -42 73.5t-87 24.5q-52 0 -86.5 -22t-34.5 -72
q0 -28 28 -48.5t72 -31.5l160 -39q63 -16 110.5 -44.5t73.5 -59t41.5 -66.5t20 -63t4.5 -54q0 -93 -57 -161.5t-144 -100.5t-190 -32q-151 0 -266.5 87t-118.5 234zM113 1448h192l156 -182l160 182h192l-225 -334h-252z" />
    <glyph glyph-name="Tcommaaccent" unicode="&#x162;" horiz-adv-x="1173" 
d="M57 1171v240h1059v-240h-397v-1171h-264v1171h-398zM360 -502q66 92 90.5 173.5t20.5 213.5h219q-15 -298 -198 -446z" />
    <glyph glyph-name="tcommaaccent" unicode="&#x163;" horiz-adv-x="718" 
d="M47 756v200h174v365h248v-365h203v-200h-203v-756h-248v756h-174zM129 -502q66 92 90.5 173.5t20.5 213.5h219q-15 -298 -199 -446z" />
    <glyph glyph-name="Tcaron" unicode="&#x164;" horiz-adv-x="1173" 
d="M57 1171v240h1059v-240h-397v-1171h-264v1171h-398zM238 1903h192l156 -183l159 183h193l-225 -334h-252z" />
    <glyph glyph-name="tcaron" unicode="&#x165;" horiz-adv-x="716" 
d="M47 756v200h172v365h250v-365h201v-200h-201v-756h-250v756h-172zM573 1133q66 92 90.5 173.5t20.5 213.5h219q-15 -298 -196 -447z" />
    <glyph glyph-name="Tbar" unicode="&#x166;" horiz-adv-x="1173" 
d="M57 1171v240h1059v-240h-397v-331h233v-156h-233v-684h-264v684h-236v156h236v331h-398z" />
    <glyph glyph-name="tbar" unicode="&#x167;" horiz-adv-x="724" 
d="M51 756v200h172v365h250v-365h201v-200h-201v-205h148v-145h-148v-406h-250v406h-119v145h119v205h-172z" />
    <glyph glyph-name="Utilde" unicode="&#x168;" horiz-adv-x="1394" 
d="M162 498v913h266v-913q0 -120 79.5 -195.5t190.5 -75.5t192 76t81 195v913h262v-913q0 -115 -43.5 -213.5t-116.5 -164.5t-170.5 -103t-204.5 -37t-204.5 37t-171 103t-117 164.5t-43.5 213.5zM410 1610q7 134 64.5 195t131.5 61q38 0 72 -21t61 -42t47 -21q17 0 36 20.5
t20 63.5h143q-4 -69 -24 -120.5t-50 -78.5t-61.5 -40t-63.5 -13q-29 0 -57.5 13t-47 29t-39.5 29t-36 13q-16 0 -34 -22t-19 -66h-143z" />
    <glyph glyph-name="utilde" unicode="&#x169;" 
d="M129 391v565h252v-520q0 -108 53.5 -160.5t128.5 -52.5q88 0 147.5 54t59.5 169v510h250v-956h-250v135q-38 -73 -112.5 -114t-151.5 -41q-173 0 -275 106.5t-102 304.5zM307 1155q7 134 65 195t132 61q38 0 72 -21t61 -42t47 -21q17 0 35.5 20t19.5 64h144
q-4 -69 -24 -120.5t-50 -78.5t-61.5 -40t-63.5 -13q-29 0 -57.5 13t-47 29t-39.5 29t-36 13q-16 0 -34 -22t-19 -66h-144z" />
    <glyph glyph-name="Umacron" unicode="&#x16a;" horiz-adv-x="1394" 
d="M162 498v913h266v-913q0 -120 79.5 -195.5t190.5 -75.5t192 76t81 195v913h262v-913q0 -115 -43.5 -213.5t-116.5 -164.5t-170.5 -103t-204.5 -37t-204.5 37t-171 103t-117 164.5t-43.5 213.5zM422 1653v170h551v-170h-551z" />
    <glyph glyph-name="umacron" unicode="&#x16b;" 
d="M129 391v565h252v-520q0 -108 53.5 -160.5t128.5 -52.5q88 0 147.5 54t59.5 169v510h250v-956h-250v135q-38 -73 -112.5 -114t-151.5 -41q-173 0 -275 106.5t-102 304.5zM319 1198v170h551v-170h-551z" />
    <glyph glyph-name="Ubreve" unicode="&#x16c;" horiz-adv-x="1394" 
d="M162 498v913h266v-913q0 -120 79.5 -195.5t190.5 -75.5t192 76t81 195v913h262v-913q0 -115 -43.5 -213.5t-116.5 -164.5t-170.5 -103t-204.5 -37t-204.5 37t-171 103t-117 164.5t-43.5 213.5zM424 1862h168q0 -113 104 -113q51 0 78 33t27 80h170q0 -121 -76.5 -194
t-198.5 -73q-68 0 -121.5 22.5t-85.5 60.5t-48.5 85t-16.5 99z" />
    <glyph glyph-name="ubreve" unicode="&#x16d;" 
d="M129 391v565h252v-520q0 -108 53.5 -160.5t128.5 -52.5q88 0 147.5 54t59.5 169v510h250v-956h-250v135q-38 -73 -112.5 -114t-151.5 -41q-173 0 -275 106.5t-102 304.5zM322 1407h167q0 -113 105 -113q51 0 77.5 33t26.5 80h170q0 -121 -76 -193.5t-198 -72.5
q-90 0 -153 39t-91 97.5t-28 129.5z" />
    <glyph glyph-name="Uring" unicode="&#x16e;" horiz-adv-x="1394" 
d="M162 498v913h266v-913q0 -120 79.5 -195.5t190.5 -75.5t192 76t81 195v913h262v-913q0 -115 -43.5 -213.5t-116.5 -164.5t-170.5 -103t-204.5 -37t-204.5 37t-171 103t-117 164.5t-43.5 213.5zM461 1794q0 101 68 170.5t165 69.5q101 0 170.5 -69.5t69.5 -170.5
q0 -98 -69.5 -165.5t-170.5 -67.5q-97 0 -165 67.5t-68 165.5zM578 1794q0 -49 34 -83t82 -34q51 0 86 34t35 83q0 51 -35 86t-86 35q-48 0 -82 -35t-34 -86z" />
    <glyph glyph-name="uring" unicode="&#x16f;" 
d="M129 391v565h252v-520q0 -108 53.5 -160.5t128.5 -52.5q88 0 147.5 54t59.5 169v510h250v-956h-250v135q-38 -73 -112.5 -114t-151.5 -41q-173 0 -275 106.5t-102 304.5zM358 1339q0 101 68.5 170.5t165.5 69.5q101 0 170 -69.5t69 -170.5q0 -98 -69 -165.5t-170 -67.5
q-97 0 -165.5 67.5t-68.5 165.5zM475 1339q0 -49 34.5 -82.5t82.5 -33.5q51 0 86 33.5t35 82.5q0 51 -35 86t-86 35q-48 0 -82.5 -35t-34.5 -86z" />
    <glyph glyph-name="Uhungarumlaut" unicode="&#x170;" horiz-adv-x="1394" 
d="M162 498v913h266v-913q0 -120 79.5 -195.5t190.5 -75.5t192 76t81 195v913h262v-913q0 -115 -43.5 -213.5t-116.5 -164.5t-170.5 -103t-204.5 -37t-204.5 37t-171 103t-117 164.5t-43.5 213.5zM455 1569l202 334h215l-225 -334h-192zM745 1569l228 334h219l-248 -334
h-199z" />
    <glyph glyph-name="uhungarumlaut" unicode="&#x171;" 
d="M129 391v565h252v-520q0 -108 53.5 -160.5t128.5 -52.5q88 0 147.5 54t59.5 169v510h250v-956h-250v135q-38 -73 -112.5 -114t-151.5 -41q-173 0 -275 106.5t-102 304.5zM293 1114l203 334h215l-226 -334h-192zM584 1114l227 334h219l-248 -334h-198z" />
    <glyph glyph-name="Uogonek" unicode="&#x172;" horiz-adv-x="1394" 
d="M162 498v913h266v-913q0 -120 79.5 -195.5t190.5 -75.5t192 76t81 195v913h262v-913q0 -142 -64.5 -256.5t-171 -179.5t-237.5 -78l-66 -181q-10 -29 -1 -56.5t36 -37.5q28 -8 53 3.5t35 37.5q4 11 6.5 24t2.5 20l1 7l142 9q1 -113 -60.5 -179.5t-148.5 -66.5
q-89 0 -152 63t-63 146q0 61 18 94l64 117q-199 24 -332 164t-133 350z" />
    <glyph glyph-name="uogonek" unicode="&#x173;" 
d="M129 391v565h252v-520q0 -108 53.5 -160.5t128.5 -52.5q88 0 147.5 54t59.5 169v510h250v-956h-119l-72 -197q-10 -29 -1 -56.5t36 -37.5q28 -8 53 3.5t35 37.5q4 11 7 24t3 20l1 7l141 9q1 -113 -60.5 -179.5t-148.5 -66.5q-89 0 -152 63t-63 146q0 61 18 94l72 133v135
q-38 -73 -112.5 -114t-151.5 -41q-173 0 -275 106.5t-102 304.5z" />
    <glyph glyph-name="Wcircumflex" unicode="&#x174;" horiz-adv-x="1826" 
d="M10 1411h283l301 -983l215 786h209l213 -786l303 983h285l-480 -1411h-211l-217 801l-213 -801h-213zM563 1575l223 334h252l226 -334h-193l-160 180l-155 -180h-193z" />
    <glyph glyph-name="wcircumflex" unicode="&#x175;" horiz-adv-x="1585" 
d="M25 956h266l194 -604l193 604h221l195 -604l194 604h266l-342 -956h-208l-213 641l-207 -641h-207zM438 1120l224 334h251l226 -334h-193l-160 180l-155 -180h-193z" />
    <glyph glyph-name="Ycircumflex" unicode="&#x176;" horiz-adv-x="1318" 
d="M-16 1411h311l362 -543l367 543h313l-544 -772v-639h-269v643zM309 1575l223 334h252l226 -334h-193l-160 180l-155 -180h-193z" />
    <glyph glyph-name="ycircumflex" unicode="&#x177;" horiz-adv-x="1046" 
d="M18 956h267l237 -596l240 596h266l-592 -1423h-264l219 541zM178 1120l223 334h252l226 -334h-193l-160 180l-155 -180h-193z" />
    <glyph glyph-name="Ydieresis" unicode="&#x178;" horiz-adv-x="1318" 
d="M-16 1411h311l362 -543l367 543h313l-544 -772v-639h-269v643zM342 1749q0 57 41 95t100 38q58 0 99 -38.5t41 -94.5t-41 -94.5t-99 -38.5q-59 0 -100 38t-41 95zM698 1749q0 56 41.5 94.5t100.5 38.5t99 -38t40 -95t-40 -95t-99 -38t-100.5 38.5t-41.5 94.5z" />
    <glyph glyph-name="Zacute" unicode="&#x179;" horiz-adv-x="1202" 
d="M86 0v205l680 971h-653v235h991v-207l-686 -968h686v-236h-1018zM440 1569l215 334h263l-283 -334h-195z" />
    <glyph glyph-name="zacute" unicode="&#x17a;" horiz-adv-x="1040" 
d="M84 0v190l494 533h-463v233h825v-192l-502 -531h502v-233h-856zM367 1114l215 334h262l-283 -334h-194z" />
    <glyph glyph-name="Zdotaccent" unicode="&#x17b;" horiz-adv-x="1202" 
d="M86 0v205l680 971h-653v235h991v-207l-686 -968h686v-236h-1018zM446 1741q0 59 43.5 100t104.5 41q63 0 106 -40.5t43 -100.5q0 -63 -42.5 -103.5t-106.5 -40.5q-61 0 -104.5 41t-43.5 103z" />
    <glyph glyph-name="zdotaccent" unicode="&#x17c;" horiz-adv-x="1040" 
d="M84 0v190l494 533h-463v233h825v-192l-502 -531h502v-233h-856zM362 1286q0 59 43.5 100t104.5 41q63 0 106 -40.5t43 -100.5q0 -62 -42.5 -102.5t-106.5 -40.5q-61 0 -104.5 40.5t-43.5 102.5z" />
    <glyph glyph-name="Zcaron" unicode="&#x17d;" horiz-adv-x="1202" 
d="M86 0v205l680 971h-653v235h991v-207l-686 -968h686v-236h-1018zM246 1903h192l156 -183l160 183h192l-225 -334h-252z" />
    <glyph glyph-name="zcaron" unicode="&#x17e;" horiz-adv-x="1040" 
d="M84 0v190l494 533h-463v233h825v-192l-502 -531h502v-233h-856zM162 1448h192l156 -182l160 182h192l-225 -334h-252z" />
    <glyph glyph-name="longs" unicode="&#x17f;" horiz-adv-x="663" 
d="M47 756v200h182v76q0 212 104.5 328.5t303.5 116.5h104v-240h-104q-156 0 -156 -205v-1032h-252v756h-182z" />
    <glyph glyph-name="florin" unicode="&#x192;" horiz-adv-x="1275" 
d="M61 -387l48 235h110q147 0 193 203l143 699h-178l43 206h178l16 72q41 210 170 325t336 111l94 -2l-47 -237h-108q-42 0 -75 -15.5t-53.5 -38.5t-37 -61t-25.5 -71.5t-18 -82.5h203l-41 -206h-205q-120 -598 -158 -760q-40 -177 -168 -279.5t-315 -99.5q-68 0 -105 2z
" />
    <glyph glyph-name="Aringacute" unicode="&#x1fa;" horiz-adv-x="1339" 
d="M0 0l528 1411h283l528 -1411h-276l-129 342h-526l-129 -342h-279zM432 1794q0 81 46 143t118 86l162 250h262l-232 -272q53 -31 85 -86.5t32 -120.5q0 -98 -69 -165.5t-170 -67.5q-97 0 -165.5 67.5t-68.5 165.5zM496 571h352l-178 539zM549 1794q0 -49 34.5 -83
t82.5 -34q51 0 85.5 33.5t34.5 83.5q0 51 -34.5 86t-85.5 35q-48 0 -82.5 -35t-34.5 -86z" />
    <glyph glyph-name="aringacute" unicode="&#x1fb;" horiz-adv-x="1257" 
d="M82 479q0 112 40.5 207t108.5 158t155.5 98t182.5 35q79 0 164 -33.5t133 -105.5v118h250v-956h-250v123q-42 -68 -129.5 -104.5t-167.5 -36.5q-127 0 -237.5 59.5t-180 175t-69.5 262.5zM338 1327q0 81 46 143t118 86l162 250h262l-232 -272q53 -31 85 -86.5t32 -120.5
q0 -98 -69.5 -165.5t-170.5 -67.5q-97 0 -165 67.5t-68 165.5zM340 479q0 -112 79 -185t185 -73q107 0 184.5 70t77.5 188t-78.5 188t-183.5 70q-107 0 -185.5 -72.5t-78.5 -185.5zM455 1327q0 -49 34 -83t82 -34q51 0 86 34t35 83q0 51 -35 86t-86 35q-48 0 -82 -35
t-34 -86z" />
    <glyph glyph-name="AEacute" unicode="&#x1fc;" horiz-adv-x="1910" 
d="M-29 0l891 1411h926v-237h-610v-363h534v-233h-534v-340h630v-238h-890v2l-3 -2v334h-419l-213 -334h-312zM645 586h270v471zM864 1569l215 334h262l-282 -334h-195z" />
    <glyph glyph-name="aeacute" unicode="&#x1fd;" horiz-adv-x="2033" 
d="M82 479q0 112 40.5 207t108.5 158t155.5 98t182.5 35q79 0 164 -33.5t133 -105.5v118h232v-153q64 83 164 128.5t217 45.5q208 0 345.5 -137t137.5 -359q0 -40 -4 -86h-729q13 -95 85 -150t179 -55q76 0 142 32t98 91q33 -18 101 -53.5t91 -48.5q-62 -116 -183.5 -173.5
t-262.5 -57.5q-117 0 -216.5 46.5t-164.5 131.5v-158h-232v123q-42 -68 -129.5 -104.5t-167.5 -36.5q-127 0 -237.5 59.5t-180 175t-69.5 262.5zM340 479q0 -112 79 -185t185 -73q107 0 184.5 70t77.5 188t-78.5 188t-183.5 70q-107 0 -185.5 -72.5t-78.5 -185.5zM866 1114
l215 334h262l-282 -334h-195zM1227 565h491q-12 95 -77.5 149t-161.5 54q-100 0 -168.5 -54t-83.5 -149z" />
    <glyph glyph-name="Oslashacute" unicode="&#x1fe;" horiz-adv-x="1607" 
d="M88 702q0 198 94.5 364.5t259 263.5t361.5 97q262 0 457 -165l161 165l97 -94l-164 -168q166 -203 166 -463q0 -196 -95 -362t-260 -263t-362 -97q-232 0 -414 133q-4 3 -16.5 10t-18.5 12l-164 -168l-96 96l164 168q-170 204 -170 471zM348 702q0 -155 92 -284l637 657
q-118 94 -274 94q-191 0 -323 -136.5t-132 -330.5zM537 324q116 -86 266 -86q190 0 322 135t132 329q0 150 -88 275zM705 1569l215 334h262l-283 -334h-194z" />
    <glyph glyph-name="oslashacute" unicode="&#x1ff;" horiz-adv-x="1159" 
d="M74 43l114 119q-106 128 -106 317q0 147 68 261.5t181 175.5t249 61q170 0 307 -100l104 108l96 -94l-106 -109q96 -130 96 -303q0 -146 -68 -261.5t-181 -176.5t-248 -61q-164 0 -291 88l-119 -121zM330 479q0 -82 35 -137l344 354q-59 35 -129 35q-105 0 -177.5 -70
t-72.5 -182zM465 250q53 -27 115 -27q105 0 177 71t72 185q0 65 -26 119zM489 1114l216 334h262l-283 -334h-195z" />
    <glyph glyph-name="Scommaaccent" unicode="&#x218;" horiz-adv-x="1181" 
d="M94 412h262q3 -81 69 -140t175 -59q103 0 166 48t68 122q4 70 -44 117t-151 75l-174 46q-356 104 -356 393q0 121 64.5 216t172.5 146t238 51q204 0 336.5 -116t132.5 -310h-262q0 84 -57 134.5t-154 50.5q-90 0 -150.5 -46t-60.5 -120q0 -117 168 -162l174 -51
q114 -31 194 -79.5t121.5 -106.5t58 -118t11.5 -126q-6 -123 -76 -215.5t-179.5 -138.5t-240.5 -46q-222 0 -364 125.5t-142 309.5zM389 -502q66 92 90.5 173.5t20.5 213.5h219q-15 -298 -199 -446z" />
    <glyph glyph-name="scommaaccent" unicode="&#x219;" horiz-adv-x="929" 
d="M74 301h233q5 -52 56.5 -88t119.5 -33q53 2 89 28.5t36 67.5q3 67 -104 91l-131 32q-72 20 -123.5 46.5t-79.5 53t-44 61.5t-20 64t-4 68q0 115 105 200t248 85q71 0 133.5 -17t116.5 -51t86.5 -94t35.5 -139h-237q-3 49 -42 73.5t-87 24.5q-52 0 -86.5 -22t-34.5 -72
q0 -28 28 -48.5t72 -31.5l160 -39q63 -16 110.5 -44.5t73.5 -59t41.5 -66.5t20 -63t4.5 -54q0 -93 -57 -161.5t-144 -100.5t-190 -32q-151 0 -266.5 87t-118.5 234zM254 -502q66 92 90.5 173.5t20.5 213.5h219q-15 -298 -199 -446z" />
    <glyph glyph-name="circumflex" unicode="&#x2c6;" horiz-adv-x="1191" 
d="M246 1120l223 334h252l225 -334h-192l-160 180l-156 -180h-192z" />
    <glyph glyph-name="caron" unicode="&#x2c7;" horiz-adv-x="1191" 
d="M246 1448h192l156 -182l160 182h192l-225 -334h-252z" />
    <glyph glyph-name="breve" unicode="&#x2d8;" horiz-adv-x="1038" 
d="M246 1407h168q0 -113 104 -113q51 0 78 33t27 80h170q0 -121 -76.5 -193.5t-198.5 -72.5q-90 0 -153 39t-91 97.5t-28 129.5z" />
    <glyph glyph-name="dotaccent" unicode="&#x2d9;" horiz-adv-x="747" 
d="M225 1286q0 59 43.5 100t104.5 41q63 0 106 -40.5t43 -100.5q0 -62 -42.5 -102.5t-106.5 -40.5q-61 0 -104.5 40.5t-43.5 102.5z" />
    <glyph glyph-name="ring" unicode="&#x2da;" horiz-adv-x="1087" 
d="M328 1339q0 101 68 170.5t165 69.5q101 0 170.5 -69.5t69.5 -170.5q0 -98 -69.5 -165.5t-170.5 -67.5q-97 0 -165 67.5t-68 165.5zM444 1339q0 -49 34.5 -82.5t82.5 -33.5q51 0 86 33.5t35 82.5q0 51 -35 86t-86 35q-48 0 -82.5 -35t-34.5 -86z" />
    <glyph glyph-name="ogonek" unicode="&#x2db;" horiz-adv-x="1081" 
d="M328 -227q0 61 18 94l105 192h120l-94 -256q-10 -29 -1 -56.5t36 -37.5q28 -8 53 3.5t35 37.5q4 11 6.5 24t3.5 20v7l142 9q1 -113 -60.5 -179.5t-148.5 -66.5q-89 0 -152 63t-63 146z" />
    <glyph glyph-name="tilde" unicode="&#x2dc;" horiz-adv-x="903" 
d="M164 1155q7 134 64.5 195t131.5 61q38 0 72 -21t61.5 -42t47.5 -21q17 0 35.5 20t19.5 64h143q-7 -131 -66.5 -191.5t-131.5 -60.5q-37 0 -72 21t-63 42t-46 21q-16 0 -34 -22t-19 -66h-143z" />
    <glyph glyph-name="hungarumlaut" unicode="&#x2dd;" horiz-adv-x="1064" 
d="M164 1114l203 334h215l-226 -334h-192zM455 1114l227 334h219l-248 -334h-198z" />
    <glyph glyph-name="Wgrave" unicode="&#x1e80;" horiz-adv-x="1826" 
d="M10 1411h283l301 -983l215 786h209l213 -786l303 983h285l-480 -1411h-211l-217 801l-213 -801h-213zM489 1903h263l215 -334h-195z" />
    <glyph glyph-name="wgrave" unicode="&#x1e81;" horiz-adv-x="1585" 
d="M25 956h266l194 -604l193 604h221l195 -604l194 604h266l-342 -956h-208l-213 641l-207 -641h-207zM406 1448h262l215 -334h-195z" />
    <glyph glyph-name="Wacute" unicode="&#x1e82;" horiz-adv-x="1826" 
d="M10 1411h283l301 -983l215 786h209l213 -786l303 983h285l-480 -1411h-211l-217 801l-213 -801h-213zM825 1569l215 334h263l-283 -334h-195z" />
    <glyph glyph-name="wacute" unicode="&#x1e83;" horiz-adv-x="1585" 
d="M25 956h266l194 -604l193 604h221l195 -604l194 604h266l-342 -956h-208l-213 641l-207 -641h-207zM676 1114l215 334h262l-283 -334h-194z" />
    <glyph glyph-name="Wdieresis" unicode="&#x1e84;" horiz-adv-x="1826" 
d="M10 1411h283l301 -983l215 786h209l213 -786l303 983h285l-480 -1411h-211l-217 801l-213 -801h-213zM596 1749q0 57 41 95t100 38q58 0 99 -38.5t41 -94.5t-41 -94.5t-99 -38.5q-59 0 -100 38t-41 95zM952 1749q0 56 41.5 94.5t100.5 38.5t99 -38t40 -95t-40 -95
t-99 -38t-100.5 38.5t-41.5 94.5z" />
    <glyph glyph-name="wdieresis" unicode="&#x1e85;" horiz-adv-x="1585" 
d="M25 956h266l194 -604l193 604h221l195 -604l194 604h266l-342 -956h-208l-213 641l-207 -641h-207zM471 1294q0 57 41 95t100 38q58 0 99 -38.5t41 -94.5t-41 -94.5t-99 -38.5q-59 0 -100 38t-41 95zM827 1294q0 56 41.5 94.5t100.5 38.5t99 -38t40 -95t-40 -95t-99 -38
t-100.5 38.5t-41.5 94.5z" />
    <glyph glyph-name="Ygrave" unicode="&#x1ef2;" horiz-adv-x="1318" 
d="M-16 1411h311l362 -543l367 543h313l-544 -772v-639h-269v643zM313 1903h262l216 -334h-195z" />
    <glyph glyph-name="ygrave" unicode="&#x1ef3;" horiz-adv-x="1046" 
d="M18 956h267l237 -596l240 596h266l-592 -1423h-264l219 541zM193 1448h262l215 -334h-195z" />
    <glyph glyph-name="uni2009" unicode="&#x2009;" horiz-adv-x="28" 
 />
    <glyph glyph-name="endash" unicode="&#x2013;" horiz-adv-x="1267" 
d="M129 371v221h1010v-221h-1010z" />
    <glyph glyph-name="emdash" unicode="&#x2014;" horiz-adv-x="1699" 
d="M129 371v221h1442v-221h-1442z" />
    <glyph glyph-name="quoteleft" unicode="&#x2018;" horiz-adv-x="546" 
d="M106 909q3 88 33 180t73.5 164t86.5 125t80 84l110 -55q-38 -53 -62.5 -94.5t-52.5 -104.5t-42 -138t-13 -161h-213z" />
    <glyph glyph-name="quoteright" unicode="&#x2019;" horiz-adv-x="542" 
d="M84 918q38 54 62.5 94.5t53 103t42.5 137t14 160.5h211q-2 -88 -31.5 -180t-73.5 -163.5t-87 -124.5t-80 -83z" />
    <glyph glyph-name="quotesinglbase" unicode="&#x201a;" horiz-adv-x="512" 
d="M2 -158q39 55 63 95.5t52.5 104t42.5 138t14 160.5h211q-2 -88 -31.5 -180t-73.5 -163.5t-87 -124.5t-80 -83z" />
    <glyph glyph-name="quotedblleft" unicode="&#x201c;" horiz-adv-x="882" 
d="M109 911q2 88 31.5 180t73.5 163.5t87 124.5t80 83l108 -55q-38 -53 -62.5 -94.5t-52 -103.5t-41.5 -137t-14 -161h-210zM442 911q3 88 33 180t73.5 163.5t86.5 124.5t80 83l110 -55q-38 -54 -62.5 -94.5t-52.5 -103t-42 -137.5t-13 -161h-213z" />
    <glyph glyph-name="quotedblright" unicode="&#x201d;" horiz-adv-x="874" 
d="M84 915q38 54 62.5 95.5t52 104t41.5 137.5t14 161h211q-2 -88 -31.5 -180t-72.5 -163.5t-86 -124.5t-80 -83zM418 915q39 55 63 95.5t52.5 104t42 138t12.5 160.5h213q-3 -88 -33 -180t-73.5 -163.5t-86.5 -124.5t-80 -83z" />
    <glyph glyph-name="quotedblbase" unicode="&#x201e;" horiz-adv-x="845" 
d="M4 -158q38 54 62.5 95.5t52 104t41.5 137.5t14 161h211q-2 -88 -31.5 -180t-73.5 -163.5t-87 -124.5t-80 -83zM338 -158q39 55 63 95.5t52.5 104t42 138t12.5 160.5h211q-2 -88 -31.5 -180t-72.5 -163.5t-86 -124.5t-80 -83z" />
    <glyph glyph-name="dagger" unicode="&#x2020;" horiz-adv-x="845" 
d="M82 883v174h227v354h228v-354h227v-174h-227v-1094h-228v1094h-227z" />
    <glyph glyph-name="daggerdbl" unicode="&#x2021;" horiz-adv-x="903" 
d="M111 254v172h227v457h-227v174h227v354h227v-354h228v-174h-228v-457h228v-172h-228v-465h-227v465h-227z" />
    <glyph glyph-name="bullet" unicode="&#x2022;" horiz-adv-x="950" 
d="M156 487q0 132 93.5 220t225.5 88t226 -88t94 -220t-93.5 -219.5t-226.5 -87.5q-132 0 -225.5 87.5t-93.5 219.5z" />
    <glyph glyph-name="ellipsis" unicode="&#x2026;" horiz-adv-x="1660" 
d="M117 135q0 67 47.5 111.5t114.5 44.5t114 -44.5t47 -111.5t-47 -111t-114 -44t-114.5 44t-47.5 111zM670 135q0 67 46 111.5t113 44.5t115.5 -45t48.5 -111t-48.5 -110.5t-115.5 -44.5t-113 44t-46 111zM1221 135q0 67 47 111.5t114 44.5t114.5 -44.5t47.5 -111.5
t-47.5 -111t-114.5 -44t-114 44t-47 111z" />
    <glyph glyph-name="perthousand" unicode="&#x2030;" horiz-adv-x="2037" 
d="M78 1090q0 115 78.5 194.5t193.5 79.5q114 0 194.5 -80t80.5 -194q0 -115 -80 -194t-195 -79t-193.5 78.5t-78.5 194.5zM236 1090q0 -50 32.5 -82.5t81.5 -32.5q48 0 82.5 33t34.5 82q0 47 -35 81.5t-82 34.5q-49 0 -81.5 -34t-32.5 -82zM297 0l666 1354h139l-666 -1354
h-139zM793 252q0 115 78.5 194.5t193.5 79.5q114 0 194 -80t80 -194q0 -115 -79.5 -193.5t-194.5 -78.5t-193.5 78t-78.5 194zM950 252q0 -50 33 -82.5t82 -32.5q48 0 82.5 33t34.5 82q0 47 -35 82t-82 35q-49 0 -82 -34.5t-33 -82.5zM1419 252q0 114 79 194t194 80
q114 0 194 -80t80 -194q0 -115 -79.5 -193.5t-194.5 -78.5q-116 0 -194.5 78.5t-78.5 193.5zM1577 252q0 -50 32.5 -82.5t82.5 -32.5q48 0 82 33t34 82q0 47 -34.5 82t-81.5 35q-49 0 -82 -34.5t-33 -82.5z" />
    <glyph glyph-name="guilsinglleft" unicode="&#x2039;" horiz-adv-x="659" 
d="M84 477l283 424h200l-282 -424l282 -424h-200z" />
    <glyph glyph-name="guilsinglright" unicode="&#x203a;" horiz-adv-x="659" 
d="M92 53l283 424l-283 424h201l282 -424l-282 -424h-201z" />
    <glyph glyph-name="fraction" unicode="&#x2044;" horiz-adv-x="368" 
d="M-362 -20l925 1390h156l-922 -1390h-159z" />
    <glyph glyph-name="uni2070" unicode="&#x2070;" horiz-adv-x="729" 
d="M74 1278q0 90 13.5 160t45.5 128t90.5 89t141.5 31t141.5 -31t90 -89t45 -127.5t13.5 -160.5q0 -70 -8 -127.5t-28.5 -110t-52.5 -88.5t-83 -57t-118 -21q-291 0 -291 404zM223 1278q0 -258 142 -258q41 0 69.5 20t43.5 57t21.5 80.5t6.5 100.5q0 262 -141 262
q-142 0 -142 -262z" />
    <glyph glyph-name="uni2074" unicode="&#x2074;" horiz-adv-x="716" 
d="M23 1055l395 618h143v-487h105v-131h-105v-168h-149v168h-389zM244 1186h168v266z" />
    <glyph glyph-name="uni2075" unicode="&#x2075;" horiz-adv-x="696" 
d="M49 1036q6 4 62.5 41t62.5 41q23 -44 65 -70t87 -26q72 0 116.5 38.5t44.5 94.5q0 64 -42 97.5t-105 33.5q-109 0 -190 -78l-72 47l65 418h441v-139h-320l-26 -152q52 35 137 35q112 0 186 -69t74 -193q0 -125 -84.5 -203t-224.5 -78q-83 0 -158.5 44t-118.5 118z" />
    <glyph glyph-name="uni2076" unicode="&#x2076;" horiz-adv-x="694" 
d="M78 1145q-2 49 -3.5 102t6 106t19 102.5t36.5 92.5t57.5 74t81.5 48.5t110 15.5q37 -2 68 -9.5t63.5 -24t59.5 -47.5t47 -75l-138 -57q-33 71 -104 71q-80 0 -118.5 -69t-35.5 -170q15 34 59 62t99 28q99 0 172 -74t72 -195q-1 -112 -80 -184t-199 -70q-110 2 -186 76
t-86 197zM242 1139q0 -51 33 -85t83 -36q48 0 83 34t36 83q0 49 -33.5 83.5t-81.5 36.5q-51 0 -85.5 -33.5t-34.5 -82.5z" />
    <glyph glyph-name="uni2077" unicode="&#x2077;" horiz-adv-x="663" 
d="M61 1532v141h580l-381 -786h-170l311 645h-340z" />
    <glyph glyph-name="uni2078" unicode="&#x2078;" horiz-adv-x="706" 
d="M63 1141q0 127 115 198q-57 57 -57 131q0 91 68 153.5t165 62.5t164.5 -62.5t67.5 -153.5q0 -79 -58 -131q115 -73 115 -198q0 -110 -84.5 -188.5t-204.5 -78.5q-121 0 -206 78t-85 189zM213 1143q0 -53 41.5 -90t99.5 -37q57 0 98.5 37.5t41.5 89.5t-39.5 90.5
t-94.5 38.5h-18q-54 0 -91.5 -39t-37.5 -90zM268 1468q0 -34 23 -58t63 -24q39 0 62.5 24.5t23.5 57.5t-24.5 56.5t-61.5 23.5q-39 0 -62.5 -23.5t-23.5 -56.5z" />
    <glyph glyph-name="uni2079" unicode="&#x2079;" horiz-adv-x="694" 
d="M68 1434q3 113 80.5 183t197.5 69q112 -2 188.5 -76t86.5 -197q7 -56 3 -118t-11.5 -123t-31 -116t-56.5 -96.5t-87.5 -64.5t-124.5 -21q-51 2 -91 14.5t-80.5 48t-67.5 93.5l139 57q34 -73 104 -73q78 0 117 70t37 171q-17 -35 -60.5 -62.5t-99.5 -27.5q-99 0 -171.5 74
t-71.5 195zM221 1425q-1 -50 32 -84t83 -36q50 0 85 33t36 83q0 50 -34 85t-83 36q-50 0 -84.5 -34t-34.5 -83z" />
    <glyph glyph-name="uni2080" unicode="&#x2080;" horiz-adv-x="729" 
d="M74 88q0 90 13.5 160t45.5 128t90.5 89t141.5 31t141.5 -31t90 -89t45 -127.5t13.5 -160.5q0 -70 -8 -127.5t-28.5 -110t-52.5 -88t-83 -56.5t-118 -21t-118 21t-83.5 56.5t-53 88t-28.5 110t-8 127.5zM223 88q0 -258 142 -258q41 0 69.5 20t43.5 57t21.5 80.5t6.5 100.5
q0 262 -141 262q-142 0 -142 -262z" />
    <glyph glyph-name="uni2081" unicode="&#x2081;" horiz-adv-x="434" 
d="M45 217v133l285 144v-799h-150v584z" />
    <glyph glyph-name="uni2082" unicode="&#x2082;" horiz-adv-x="657" 
d="M66 262q19 108 90.5 171t175.5 63q106 0 180 -67t74 -171q0 -107 -84 -201q-133 -151 -191 -219h262v-143h-503v78l321 383q45 55 45 102q0 41 -30 67.5t-80 26.5q-47 0 -81.5 -32t-41.5 -84z" />
    <glyph glyph-name="uni2083" unicode="&#x2083;" horiz-adv-x="651" 
d="M39 -150l127 66q21 -38 54.5 -63t74.5 -25q51 -3 90.5 27t42.5 71q1 18 -4 37t-17 39.5t-38.5 33t-63.5 11.5h-86v129h86q51 0 72.5 36t17.5 67q-2 31 -26.5 55t-63.5 24q-66 3 -104 -55l-113 78q34 56 98 87.5t140 27.5q99 -6 163 -70t64 -150q0 -46 -27 -88t-71 -67
q62 -23 99.5 -85t31.5 -128q-9 -99 -98 -165t-203 -58q-81 6 -147 51t-99 114z" />
    <glyph glyph-name="uni2084" unicode="&#x2084;" horiz-adv-x="710" 
d="M18 -135l396 618h143v-487h105v-131h-105v-170h-149v170h-390zM240 -4h168v266z" />
    <glyph glyph-name="uni2085" unicode="&#x2085;" horiz-adv-x="692" 
d="M49 -156q6 5 62.5 42t62.5 42q23 -44 65 -70t87 -26q72 0 116.5 38.5t44.5 94.5q0 64 -42 97.5t-105 33.5q-109 0 -190 -78l-72 48l65 417h441v-139h-320l-26 -154q51 37 137 37q112 0 186 -69t74 -193q0 -126 -84.5 -204t-224.5 -78q-83 0 -158.5 44.5t-118.5 116.5z
" />
    <glyph glyph-name="uni2086" unicode="&#x2086;" horiz-adv-x="692" 
d="M76 -45q-2 49 -3.5 101.5t6 105.5t19 102.5t36.5 92.5t57.5 74.5t81.5 49t110 15.5q37 -2 68 -9.5t63.5 -24t59.5 -47.5t47 -75l-138 -57q-35 71 -104 71q-80 0 -118.5 -69.5t-35.5 -171.5q15 35 59 63.5t99 28.5q99 0 172 -74.5t72 -193.5q-1 -112 -80 -184t-199 -70
q-110 2 -186 75.5t-86 196.5zM240 -53q0 -50 33.5 -84.5t82.5 -34.5q47 -1 82 33t37 82q0 51 -33.5 85.5t-81.5 34.5q-51 2 -85.5 -31.5t-34.5 -84.5z" />
    <glyph glyph-name="uni2087" unicode="&#x2087;" horiz-adv-x="643" 
d="M55 342v141h580l-381 -788h-170l311 647h-340z" />
    <glyph glyph-name="uni2088" unicode="&#x2088;" horiz-adv-x="706" 
d="M63 -49q0 128 115 199q-57 57 -57 131q0 90 68 152.5t165 62.5t164.5 -62.5t67.5 -152.5q0 -79 -58 -131q53 -33 84 -85t31 -114q0 -110 -84.5 -188t-204.5 -78q-121 0 -206 78t-85 188zM213 -47q0 -53 41.5 -90t99.5 -37q57 0 98.5 37.5t41.5 89.5q0 50 -39.5 89.5
t-94.5 39.5h-18q-54 0 -91.5 -39t-37.5 -90zM268 279q0 -34 23.5 -59t62.5 -25q39 1 62.5 26t23.5 58t-24 56t-62 23q-39 0 -62.5 -23t-23.5 -56z" />
    <glyph glyph-name="uni2089" unicode="&#x2089;" horiz-adv-x="694" 
d="M68 244q3 111 81 182t197 70q112 -2 188.5 -76t86.5 -197q7 -56 3 -118t-11.5 -123t-31 -116t-56.5 -96.5t-87.5 -65t-124.5 -21.5q-51 2 -91 14.5t-80.5 47.5t-67.5 93l139 60q35 -74 104 -74q78 0 117 70t37 172q-17 -36 -60.5 -63.5t-99.5 -27.5q-99 0 -171.5 74
t-71.5 195zM221 236q-1 -51 32 -86t83 -35t85 32.5t36 81.5q0 51 -34 86t-83 35q-49 1 -84 -32.5t-35 -81.5z" />
    <glyph glyph-name="colonmonetary" unicode="&#x20a1;" horiz-adv-x="1441" 
d="M82 702q0 144 52.5 275.5t143 228t217 155.5t269.5 64l80 224l110 -41l-67 -189q82 -9 149 -35l68 191l110 -41l-69 -197q125 -69 215 -188l-209 -150q-48 58 -96 91l-305 -859q28 -4 43 -4q112 0 207.5 51.5t158.5 139.5l207 -152q-94 -133 -243.5 -209.5t-329.5 -76.5
q-65 0 -129 12l-78 -219l-111 41l74 209q-75 26 -135 65l-88 -242l-111 39l100 279q-110 101 -171.5 240.5t-61.5 297.5zM344 702q0 -142 70 -260l256 719q-145 -41 -235.5 -168t-90.5 -291zM502 338q60 -57 131 -80l319 891q-81 26 -149 29z" />
    <glyph glyph-name="lira" unicode="&#x20a4;" horiz-adv-x="1366" 
d="M96 0v229h209v236h-166v123h166v108h-166v123h166v146q0 210 117.5 336t312.5 126q91 0 170.5 -28t141 -82.5t96.5 -142t35 -197.5h-256q0 100 -54 145.5t-137 42.5q-76 -2 -126 -50.5t-50 -125.5v-170h262v-123h-262v-108h262v-123h-262v-236h420q23 0 37 18.5t14 45.5
v80h248v-111q0 -112 -67 -187t-171 -75h-940z" />
    <glyph glyph-name="uni20A6" unicode="&#x20a6;" horiz-adv-x="1609" 
d="M100 664v112h185v221h-185v113h185v301h243l177 -301h362v301h262v-301h178v-113h-178v-221h178v-112h-178v-664h-239l-390 664h-155v-664h-260v664h-185zM545 776h88l-88 152v-152zM772 997l129 -221h166v221h-295zM967 664l100 -170v170h-100z" />
    <glyph glyph-name="peseta" unicode="&#x20a7;" horiz-adv-x="1546" 
d="M100 788v113h164v107h-164v112h164v291h574q162 0 267 -80.5t150 -210.5h207v-112h-180q4 -50 4 -70q0 -25 -2 -37h178v-113h-198q-39 -131 -146 -208.5t-280 -77.5h-312v-502h-262v788h-164zM526 735h299q89 0 142 53h-441v-53zM526 901h494q4 24 4 37q0 37 -8 70h-490
v-107zM526 1120h432q-54 58 -124 58h-308v-58z" />
    <glyph glyph-name="uni20A8" unicode="&#x20a8;" horiz-adv-x="1435" 
d="M127 1411h1216v-119h-434q105 -99 127 -245h307v-119h-299q-8 -158 -98 -273t-260 -143l361 -512h-316l-332 502h-270v233h444q88 0 138.5 56t58.5 137h-641v119h629q-49 131 -176 131h-453q0 10 -1 116.5t-1 116.5z" />
    <glyph glyph-name="uni20A9" unicode="&#x20a9;" horiz-adv-x="2033" 
d="M98 659v113h236l-45 131h-191v113h154l-133 395h282l121 -395h340l56 198h208l54 -198h340l122 395h285l-135 -395h139v-113h-178l-43 -131h221v-113h-260l-223 -659h-211l-178 659h-78l-174 -659h-213l-223 659h-273zM557 903l39 -131h201l34 131h-274zM631 659l71 -231
l64 231h-135zM1210 903l35 -131h201l39 131h-275zM1276 659l63 -231l72 231h-135z" />
    <glyph glyph-name="afii57636" unicode="&#x20aa;" horiz-adv-x="1810" 
d="M184 0v1102h527q84 0 147 -8q172 -13 276.5 -130t104.5 -284v-279h-250v244q0 87 -61.5 147t-161.5 60h-84h-246v-852h-252zM571 422v278h250v-243q0 -87 61.5 -147t161.5 -60h84h246v852h252v-1102h-526q-74 0 -148 6q-171 15 -276 132t-105 284z" />
    <glyph glyph-name="Euro" unicode="&#x20ac;" horiz-adv-x="1710" 
d="M98 520v123h992v-123h-478q51 -132 162.5 -212.5t253.5 -80.5q112 0 208 51.5t159 139.5l207 -152q-94 -133 -244 -209.5t-330 -76.5q-250 0 -439.5 151.5t-248.5 388.5h-242zM98 758v123h240q58 238 248.5 392t441.5 154q177 0 325 -74t242 -204l-209 -150
q-64 83 -156.5 132t-201.5 49q-144 0 -257 -82.5t-161 -216.5h480v-123h-992z" />
    <glyph glyph-name="afii61289" unicode="&#x2113;" horiz-adv-x="817" 
d="M133 340v747q0 340 297 340q80 0 137.5 -26.5t90.5 -75.5t48 -110.5t15 -137.5v-383q0 -85 -15.5 -144t-54 -105t-111 -68.5t-180.5 -22.5v-14q0 -63 22.5 -93.5t88.5 -31.5l199 -10v-205h-240q-297 0 -297 340zM360 573l70 5q34 0 49 30t15 74v393q0 133 -64 133
q-42 0 -56 -36.5t-14 -96.5v-502z" />
    <glyph glyph-name="afii61352" unicode="&#x2116;" horiz-adv-x="2004" 
d="M182 0v1411h246l537 -917v917h262v-1411h-238l-545 928v-928h-262zM1364 1149q0 114 78.5 193t193.5 79q113 0 193 -79t80 -193q0 -113 -80 -191.5t-193 -78.5q-115 0 -193.5 78t-78.5 192zM1376 666v122h518v-122h-518zM1513 1149q0 -51 35.5 -87t87.5 -36q51 0 87 36
t36 87t-36 88t-87 37q-52 0 -87.5 -36.5t-35.5 -88.5z" />
    <glyph glyph-name="trademark" unicode="&#x2122;" horiz-adv-x="1738" 
d="M129 1270v141h774l236 -493l231 493h137l92 -758h-157l-58 488l-186 -404h-119l-188 404l-57 -488h-158l74 617h-220v-617h-159v617h-242z" />
    <glyph glyph-name="estimated" unicode="&#x212e;" horiz-adv-x="1333" 
d="M121 573q0 164 66.5 298t196.5 215t300 81q169 0 298 -82.5t195 -217t66 -296.5h-878v-395q135 -129 311 -129q67 0 124.5 14.5t99.5 36.5t81 58t66.5 70t58.5 81l63 -39q-34 -53 -67.5 -94t-78 -78.5t-94 -62t-114 -39t-139.5 -14.5q-122 0 -227 47.5t-176.5 128
t-111.5 189t-40 228.5zM365 639h632v334q-59 54 -143.5 90.5t-169.5 36.5q-195 0 -319 -127v-334z" />
    <glyph glyph-name="minus" unicode="&#x2212;" horiz-adv-x="1085" 
d="M143 440v195h799v-195h-799z" />
    <glyph glyph-name="notequal" unicode="&#x2260;" horiz-adv-x="1249" 
d="M152 276v193h354l104 215h-458v193h553l102 206h145l-102 -206h244v-193h-338l-105 -215h443v-193h-537l-106 -217h-144l107 217h-262z" />
    <glyph glyph-name="lessequal" unicode="&#x2264;" horiz-adv-x="1314" 
d="M129 688v213l1032 393v-215l-755 -284l755 -285v-215zM143 0v180h1008v-180h-1008z" />
    <glyph glyph-name="greaterequal" unicode="&#x2265;" horiz-adv-x="1314" 
d="M154 295v215l755 285l-755 284v215l1032 -393v-213zM164 0v180h1007v-180h-1007z" />
    <glyph glyph-name="uniE000" unicode="&#xe000;" horiz-adv-x="952" 
d="M0 0v952h952v-952h-952z" />
    <glyph glyph-name="uniF6C3" unicode="&#xf6c3;" horiz-adv-x="616" 
d="M143 -502q66 92 90.5 173.5t20.5 213.5h219q-15 -298 -199 -446z" />
    <glyph glyph-name="uniF6DD" unicode="&#xf6dd;" horiz-adv-x="2379" 
d="M147 0v1411h566q112 0 200.5 -39t141.5 -104.5t80.5 -145.5t27.5 -168q0 -78 -21.5 -149.5t-63.5 -132t-112 -103t-161 -57.5l360 -512h-315l-332 502h-108v-502h-263zM410 735h282q96 0 147.5 66t51.5 153q0 86 -50 155t-141 69h-290v-443zM1294 -465v1421h250v-129
q38 69 120.5 109.5t178.5 40.5q93 0 178 -36t149 -99.5t102 -158t38 -204.5q0 -111 -38 -206t-102 -158.5t-148.5 -99t-178.5 -35.5q-97 0 -179.5 38.5t-119.5 108.5v-592h-250zM1548 475q0 -119 75 -188.5t179 -69.5q106 0 179 72t73 186q0 116 -73.5 189t-178.5 73
q-106 0 -180 -72.5t-74 -189.5z" />
    <glyph glyph-name="uniF8FF" unicode="&#xf8ff;" horiz-adv-x="1734" 
d="M164 0v1407h1407v-1407h-1407zM336 162h18v76l27 -76h20l23 76v-76h18v108h-28l-19 -73l-28 73h-31v-108zM336 446h166l-152 154v365l522 -519l525 519v-365l-152 -154h172v773l-545 -539l-536 539v-773zM457 215q0 -22 13 -37.5t38 -15.5q22 0 34.5 15.5t12.5 37.5
q0 23 -12.5 39t-34.5 16q-25 0 -38 -16t-13 -39zM473 215q0 12 10.5 23.5t24.5 11.5q12 0 18 -11t6 -24q0 -12 -6 -22.5t-18 -10.5q-14 0 -24.5 11.5t-10.5 21.5zM555 203q0 -20 12.5 -30.5t32.5 -10.5q45 0 45 35q0 22 -31 28q-21 3 -26.5 5t-5.5 8q0 12 18 12q21 0 21 -12
h18q0 32 -39 32q-15 0 -27 -9t-12 -23q0 -11 8 -17t25 -14q27 0 27 -10t-4.5 -12.5t-16.5 -2.5q-18 0 -18 21h-27zM645 250h35v-88h16v88h31v20h-82v-20zM709 162h24l8 26h45l7 -26h22h19v45h26q8 0 13.5 -6t5.5 -13v-26h26q-6 6 -6 26q0 19 -14 27q10 4 12 8.5t2 14.5
q0 32 -27 32h-57v-108l-43 108h-18zM748 207l12 37h6l14 -37h-32zM834 221v29h26q19 0 19 -12q0 -17 -19 -17h-26zM913 162h41q24 0 38 16.5t14 42.5q0 22 -14 35.5t-38 13.5h-41v-108zM938 182v68h8q21 0 28 -8t7 -27q0 -13 -9 -23t-18 -10h-16zM1012 162h82v20h-58v25h51
v18h-51v25h51v20h-75v-108zM1094 203q0 -41 45 -41q19 0 32 10t13 25q0 21 -31 28q-23 3 -29 5t-6 8q0 12 15 12q24 0 24 -12h21q0 32 -39 32q-16 0 -30.5 -9t-14.5 -23q0 -11 9.5 -17t29.5 -14q24 0 24 -10q0 -15 -18 -15q-10 0 -18.5 5.5t-8.5 15.5h-18zM1192 162h14v108
h-14v-108zM1221 215q0 -22 13.5 -37.5t37.5 -15.5q18 0 24 14l9 -14h12v59h-45v-18h24q-9 -21 -24 -21q-14 0 -23.5 11.5t-9.5 21.5q0 12 9.5 23.5t23.5 11.5q6 0 12 -6t6 -15h27q-4 20 -17 30.5t-28 10.5q-24 0 -37.5 -16t-13.5 -39zM1329 162h17v67l45 -67h26v108h-26v-67
l-45 67h-17v-108z" />
    <glyph glyph-name="NULL" horiz-adv-x="0" 
 />
    <glyph glyph-name="published" horiz-adv-x="1640" 
d="M104 702q0 147 56 281t151.5 231.5t228 155t279.5 57.5t280 -57.5t228.5 -155t152 -231.5t56.5 -281q0 -196 -95.5 -362.5t-260.5 -263t-361 -96.5q-147 0 -279.5 57t-228 154t-151.5 230.5t-56 280.5zM229 702q0 -122 46 -232t124.5 -190t188 -127t231.5 -47t231.5 47
t188 127t124.5 190t46 232t-46 232.5t-124.5 190.5t-188.5 127.5t-231 47.5t-231 -47.5t-188.5 -127.5t-124.5 -190.5t-46 -232.5zM606 324v723h279q113 0 173 -70t60 -168q0 -41 -14 -81t-40.5 -75.5t-73 -57.5t-105.5 -22h-137v-249h-142zM748 713h133q45 0 68.5 28
t23.5 68q0 41 -23 69.5t-65 28.5h-137v-194z" />
    <glyph glyph-name="frenchfranc" horiz-adv-x="1509" 
d="M188 0v1411h854v-235h-593v-312h557v-223q35 125 102.5 185.5t153.5 60.5q116 0 176 -37l-43 -229q-61 32 -144 32q-245 0 -245 -405v-248h-242v635h-315v-635h-261z" />
    <glyph glyph-name="parenleft.case" horiz-adv-x="774" 
d="M86 698q0 279 80 498.5t221 340t318 120.5v-209q-105 0 -197.5 -100.5t-148.5 -274.5t-56 -375q0 -200 56 -371.5t148.5 -269.5t197.5 -98v-207q-133 0 -247.5 68.5t-196.5 191t-128.5 300t-46.5 386.5z" />
    <glyph glyph-name="parenright.case" horiz-adv-x="774" 
d="M70 -41q105 0 197.5 98t148 269.5t55.5 371.5q0 202 -55.5 375.5t-148 274t-197.5 100.5v209q177 0 318 -120.5t220.5 -340t79.5 -498.5q0 -209 -46.5 -386.5t-128 -300t-196 -191t-247.5 -68.5v207z" />
    <glyph glyph-name="hyphen.case" horiz-adv-x="976" 
d="M129 621v208h719v-208h-719z" />
    <glyph glyph-name="at.case" horiz-adv-x="1980" 
d="M96 752q0 184 69 350.5t186.5 287.5t282 192t347.5 71q123 0 241 -30t220 -84t188 -133t146.5 -173.5t94.5 -208.5t34 -236q0 -77 -12.5 -155t-42.5 -158t-74 -141.5t-113 -100t-154 -38.5q-61 0 -112.5 16t-95 50.5t-68.5 96t-25 144.5v260q0 105 -72.5 176.5
t-174.5 71.5t-175 -71.5t-73 -176.5q0 -101 73 -172.5t175 -71.5q93 0 176 68v-187q-86 -49 -176 -49q-172 0 -294 120.5t-122 291.5q0 174 122 295t294 121q165 0 288 -113t129 -283v-293q0 -70 38 -98.5t93 -28.5q53 0 94 29.5t64.5 74t39 104t21 112.5t5.5 106
q0 147 -60.5 277t-163 221t-240 144t-288.5 53q-148 0 -281 -58t-228 -156t-150.5 -233t-55.5 -284t55.5 -282.5t150.5 -229.5t227.5 -152.5t281.5 -56.5h59v-170h-59q-184 0 -348 69.5t-281.5 188.5t-186.5 284t-69 349z" />
    <glyph glyph-name="bracketleft.case" horiz-adv-x="679" 
d="M156 -236v1876h450v-194h-229v-1485h229v-197h-450z" />
    <glyph glyph-name="bracketright.case" horiz-adv-x="679" 
d="M74 -39h229v1485h-229v194h450v-1876h-450v197z" />
    <glyph glyph-name="braceleft.case" horiz-adv-x="833" 
d="M70 618v170q48 0 86.5 32.5t38.5 82.5v332q0 182 118 293.5t291 111.5h160v-192h-166q-77 0 -131.5 -56.5t-54.5 -140.5v-313q0 -85 -39.5 -148.5t-100.5 -87.5q60 -23 100 -86.5t40 -146.5v-301q0 -84 55 -145.5t131 -61.5h166v-197h-160q-173 0 -291 112t-118 294v336
q0 49 -38.5 80.5t-86.5 31.5z" />
    <glyph glyph-name="braceright.case" horiz-adv-x="833" 
d="M70 -39h166q76 0 131 61.5t55 145.5v301q0 83 40 146.5t99 86.5q-61 24 -100 87.5t-39 148.5v313q0 84 -54.5 140.5t-131.5 56.5h-166v192h159q173 0 291.5 -111.5t118.5 -293.5v-332q0 -50 38.5 -82.5t86.5 -32.5v-170q-48 0 -86.5 -31.5t-38.5 -80.5v-336
q0 -182 -118.5 -294t-291.5 -112h-159v197z" />
    <glyph glyph-name="exclamdown.case" horiz-adv-x="573" 
d="M125 1274q0 66 47 111t113 45q68 0 116 -44.5t48 -111.5t-48 -111.5t-116 -44.5q-66 0 -113 45t-47 111zM141 0l39 997h215l39 -997h-293z" />
    <glyph glyph-name="guillemotleft.case" horiz-adv-x="1069" 
d="M102 707l283 423h201l-283 -423l283 -424h-201zM465 707l283 423h200l-282 -423l282 -424h-200z" />
    <glyph glyph-name="periodcentered.case" horiz-adv-x="569" 
d="M123 870q0 66 47 111t113 45q68 0 115.5 -44.5t47.5 -111.5t-47.5 -111t-115.5 -44q-66 0 -113 44.5t-47 110.5z" />
    <glyph glyph-name="guillemotright.case" horiz-adv-x="1069" 
d="M121 283l282 424l-282 423h201l282 -423l-282 -424h-201zM483 283l283 424l-283 423h201l283 -423l-283 -424h-201z" />
    <glyph glyph-name="questiondown.case" horiz-adv-x="1005" 
d="M76 375q0 144 78.5 246.5t203.5 140.5q64 21 91.5 57t27.5 107l4 73h244l4 -73q0 -65 -8 -114.5t-27.5 -87.5t-42.5 -65.5t-62.5 -53.5t-78.5 -46t-98 -49q-6 -3 -9 -4q-77 -33 -77 -133q0 -64 52 -106t126 -42q75 0 124.5 49t49.5 129h248q0 -194 -118 -311t-304 -117
t-307 109.5t-121 290.5zM438 1270q0 68 47.5 112.5t114.5 44.5t114.5 -44.5t47.5 -112.5q0 -65 -47.5 -110.5t-114.5 -45.5t-114.5 45.5t-47.5 110.5z" />
    <glyph glyph-name="endash.case" horiz-adv-x="1271" 
d="M131 600v221h1010v-221h-1010z" />
    <glyph glyph-name="emdash.case" horiz-adv-x="1703" 
d="M131 600v221h1442v-221h-1442z" />
    <glyph glyph-name="bullet.case" horiz-adv-x="958" 
d="M160 717q0 132 93.5 219.5t225.5 87.5q133 0 226.5 -87.5t93.5 -219.5t-93.5 -219.5t-226.5 -87.5q-132 0 -225.5 87.5t-93.5 219.5z" />
    <glyph glyph-name="guilsinglleft.case" horiz-adv-x="706" 
d="M102 707l283 423h201l-283 -423l283 -424h-201z" />
    <glyph glyph-name="guilsinglright.case" horiz-adv-x="706" 
d="M121 283l282 424l-282 423h201l282 -423l-282 -424h-201z" />
    <glyph glyph-name="cent.case" horiz-adv-x="1099" 
d="M88 711q0 192 119.5 323.5t300.5 163.5v219h141v-213q107 -9 199 -57t153 -127l-198 -150q-33 45 -86.5 70t-112.5 25q-109 0 -188.5 -70.5t-79.5 -183.5q0 -114 80 -188t188 -74q59 0 112.5 25.5t86.5 70.5l201 -148q-63 -81 -155 -129t-200 -57v-231h-141v237
q-181 32 -300.5 166t-119.5 328z" />
    <glyph glyph-name="zero.tnum" horiz-adv-x="1187" 
d="M98 670q0 121 14 220.5t49.5 189.5t91 151t142.5 97t201 36t200.5 -36t141 -97t88.5 -151t47.5 -189t13.5 -221q0 -121 -13.5 -219t-47.5 -188t-88.5 -150.5t-141 -96.5t-200.5 -36t-201 36t-142.5 97t-91 150.5t-49.5 188t-14 218.5zM350 670q0 -445 246 -445
q242 0 242 445q0 448 -242 448q-246 0 -246 -448z" />
    <glyph glyph-name="one.tnum" horiz-adv-x="1187" 
d="M303 920v225l477 211v-1356h-252v1010z" />
    <glyph glyph-name="two.tnum" horiz-adv-x="1187" 
d="M145 969q29 182 151.5 288.5t301.5 106.5q118 0 216 -50t157 -143t59 -210q0 -183 -143 -343l-332 -378h453v-240h-856v129l546 655q82 96 82 177q0 68 -53.5 113.5t-138.5 45.5q-82 0 -139.5 -54t-69.5 -140z" />
    <glyph glyph-name="three.tnum" horiz-adv-x="1187" 
d="M111 264q9 5 109.5 55.5t109.5 55.5q31 -63 91 -106.5t126 -43.5q96 0 160.5 56t64.5 143q0 14 -4 32.5t-17.5 45t-35 47t-61.5 35t-91 12.5h-143v223h143q44 -1 76.5 16.5t47.5 44t21.5 48.5t6.5 39q0 48 -27.5 93.5t-91.5 57.5q-130 17 -207 -82l-196 129
q58 97 167 151.5t238 47.5q170 -9 278.5 -116.5t108.5 -258.5q0 -81 -45.5 -150t-120.5 -112q104 -39 169 -147.5t54 -217.5q-12 -119 -86 -210t-187 -135t-243 -35q-136 9 -248 86t-167 196z" />
    <glyph glyph-name="four.tnum" horiz-adv-x="1187" 
d="M25 291l667 1048h244v-829h178v-219h-178v-291h-250v291h-661zM389 510h297v467z" />
    <glyph glyph-name="five.tnum" horiz-adv-x="1187" 
d="M90 262q9 5 105.5 65.5t105.5 65.5q40 -74 110 -120t144 -46q129 0 207 68t78 164q0 112 -72.5 171.5t-185.5 59.5q-183 0 -308 -135l-143 86l113 698h762v-231h-562l-47 -274q39 34 109 52.5t139 18.5q92 0 172.5 -29t141.5 -84t96 -141t35 -192q0 -214 -146.5 -346.5
t-388.5 -132.5q-140 0 -267.5 77.5t-197.5 204.5z" />
    <glyph glyph-name="six.tnum" horiz-adv-x="1187" 
d="M133 444q-7 82 -7 160t6.5 161t23.5 156.5t43.5 143t68.5 124.5t95.5 95.5t127.5 61.5t162 18q64 -2 117 -14.5t107 -40.5t100 -79.5t80 -125.5l-232 -98q-60 122 -180 122q-70 0 -123.5 -34.5t-84 -93.5t-44 -132t-8.5 -155q21 57 96 104t174 47q168 0 291.5 -125
t122.5 -329q-3 -190 -136 -310.5t-339 -119.5q-187 3 -315.5 129t-145.5 335zM406 430q0 -86 58.5 -146.5t141.5 -60.5q85 -2 144.5 56.5t60.5 144.5q2 85 -55.5 145.5t-141.5 61.5q-85 1 -145.5 -57.5t-62.5 -143.5z" />
    <glyph glyph-name="seven.tnum" horiz-adv-x="1187" 
d="M137 1104v235h981l-641 -1339h-287l531 1104h-584z" />
    <glyph glyph-name="eight.tnum" horiz-adv-x="1187" 
d="M100 434q0 108 52.5 195t144.5 141q-98 95 -98 229q0 151 115 258t280 107q164 0 279.5 -107t115.5 -258q0 -136 -100 -229q92 -53 144 -141t52 -195q0 -124 -65.5 -228.5t-178.5 -165t-247 -60.5q-135 0 -248.5 60.5t-179.5 165t-66 228.5zM350 442q0 -92 72 -158.5
t172 -66.5q98 0 170 66.5t72 158.5q0 87 -67.5 154.5t-160.5 67.5h-37q-92 0 -156.5 -67.5t-64.5 -154.5zM442 991q0 -61 42 -103t112 -42q68 0 107.5 42.5t39.5 102.5q0 57 -41.5 98t-107.5 41q-67 0 -109.5 -41.5t-42.5 -97.5z" />
    <glyph glyph-name="nine.tnum" horiz-adv-x="1187" 
d="M119 934q3 190 135.5 310.5t337.5 117.5q189 -3 316.5 -128t146.5 -335q6 -73 7 -142.5t-4 -144t-16 -141.5t-31.5 -132.5t-49 -119.5t-70 -100.5t-92.5 -77.5t-118 -47.5t-146 -13.5q-64 2 -117 14.5t-107 40.5t-100 79.5t-80 125.5l231 98q60 -123 181 -123
q92 0 154.5 60t87 152t18.5 204q-21 -58 -97 -105t-176 -47q-166 0 -289 125.5t-122 329.5zM377 920q-3 -85 54 -145.5t142 -61.5q85 -2 146.5 56t62.5 142q0 87 -58 147t-142 62q-85 1 -144 -57t-61 -143z" />
    <glyph glyph-name="zero.taboldstyle" horiz-adv-x="1187" 
d="M80 518q0 120 42.5 222.5t113.5 170.5t164 106t194 38q103 0 197 -38t164.5 -106t112.5 -170.5t42 -222.5q0 -157 -71.5 -281t-188.5 -189.5t-256 -65.5q-101 0 -194 38.5t-164 107t-113.5 170.5t-42.5 220zM319 518q0 -131 82 -215t193 -84q113 0 195.5 84t82.5 215
q0 132 -82.5 214.5t-195.5 82.5q-112 0 -193.5 -82.5t-81.5 -214.5z" />
    <glyph glyph-name="one.taboldstyle" horiz-adv-x="1187" 
d="M289 559v246l530 254v-1059h-252v684z" />
    <glyph glyph-name="two.taboldstyle" horiz-adv-x="1187" 
d="M174 0v135l481 492q70 67 70 110q0 42 -37 71.5t-98 29.5q-63 0 -106 -33.5t-50 -97.5l-244 32q19 151 127 242.5t277 91.5q175 0 288 -95t113 -230q0 -134 -143 -273l-262 -248h403v-227h-819z" />
    <glyph glyph-name="six.taboldstyle" horiz-adv-x="1187" 
d="M133 444q-7 82 -7 160t6.5 161t23.5 156.5t43.5 143t68.5 124.5t95.5 95.5t127.5 61.5t162 18q64 -2 117 -14.5t107 -40.5t100 -79.5t80 -125.5l-232 -98q-60 122 -180 122q-70 0 -123.5 -34.5t-84 -93.5t-44 -132t-8.5 -155q21 57 96 104t174 47q168 0 291.5 -125
t122.5 -329q-3 -190 -136 -310.5t-339 -119.5q-187 3 -315.5 129t-145.5 335zM406 430q0 -86 58.5 -146.5t141.5 -60.5q85 -2 144.5 56.5t60.5 144.5q2 85 -55.5 145.5t-141.5 61.5q-85 1 -145.5 -57.5t-62.5 -143.5z" />
    <glyph glyph-name="eight.taboldstyle" horiz-adv-x="1187" 
d="M100 434q0 108 52.5 195t144.5 141q-98 95 -98 229q0 151 115 258t280 107q164 0 279.5 -107t115.5 -258q0 -136 -100 -229q92 -53 144 -141t52 -195q0 -124 -65.5 -228.5t-178.5 -165t-247 -60.5q-135 0 -248.5 60.5t-179.5 165t-66 228.5zM350 442q0 -92 72 -158.5
t172 -66.5q98 0 170 66.5t72 158.5q0 87 -67.5 154.5t-160.5 67.5h-37q-92 0 -156.5 -67.5t-64.5 -154.5zM442 991q0 -61 42 -103t112 -42q68 0 107.5 42.5t39.5 102.5q0 57 -41.5 98t-107.5 41q-67 0 -109.5 -41.5t-42.5 -97.5z" />
    <glyph glyph-name="three.taboldstyle" horiz-adv-x="1187" 
d="M115 -123q9 5 109.5 55.5t109.5 55.5q31 -63 91 -106.5t126 -43.5q96 0 160.5 56t64.5 143q0 14 -4 32.5t-17.5 45t-35 47t-61.5 35t-91 12.5h-143v223h143q44 -1 76.5 16.5t47.5 44t21.5 48.5t6.5 39q0 48 -27.5 93.5t-91.5 57.5q-130 17 -207 -82l-196 129
q58 97 167 151.5t238 47.5q170 -9 278.5 -116.5t108.5 -258.5q0 -81 -45.5 -150t-120.5 -112q104 -39 169.5 -147.5t54.5 -217.5q-12 -119 -86 -210t-188 -135.5t-243 -35.5q-136 9 -248 86.5t-167 196.5z" />
    <glyph glyph-name="four.taboldstyle" horiz-adv-x="1187" 
d="M29 -94l667 1048h246v-829h178v-219h-178v-291h-252v291h-661zM393 125h297v465z" />
    <glyph glyph-name="five.taboldstyle" horiz-adv-x="1187" 
d="M90 -123q9 5 106.5 65.5t106.5 65.5q38 -74 107.5 -119t144.5 -45q130 0 207.5 67t77.5 163q0 113 -72 172t-186 59q-185 0 -308 -133l-143 86l113 696h762v-231h-562l-47 -274q40 34 110 53.5t138 19.5q191 0 318 -119t127 -329q0 -212 -147 -346t-388 -134
q-139 0 -266.5 78t-198.5 205z" />
    <glyph glyph-name="seven.taboldstyle" horiz-adv-x="1187" 
d="M139 719v235h981l-643 -1339h-287l531 1104h-582z" />
    <glyph glyph-name="nine.taboldstyle" horiz-adv-x="1187" 
d="M125 549q3 190 135.5 310.5t337.5 117.5q189 -3 316.5 -128t146.5 -335q6 -73 7 -142.5t-4 -144t-16 -141.5t-31.5 -132.5t-49 -120t-70 -100.5t-92.5 -77.5t-118 -48t-146 -13.5q-64 2 -117 15t-107 40.5t-100 79.5t-80 126l232 98q60 -123 180 -123q92 0 154.5 60
t87 152t18.5 204q-21 -58 -96.5 -105t-175.5 -47q-166 0 -289.5 125.5t-122.5 329.5zM383 535q-3 -85 54.5 -145t142.5 -62t146 56t62 142q0 87 -58 147t-142 62q-85 1 -144 -57t-61 -143z" />
    <glyph glyph-name="zero.oldstyle" horiz-adv-x="1228" 
d="M98 518q0 120 42.5 222.5t113.5 170.5t164 106t194 38q103 0 197 -38t164.5 -106t112.5 -170.5t42 -222.5q0 -157 -71.5 -281t-188.5 -189.5t-256 -65.5q-101 0 -194 38.5t-164 107t-113.5 170.5t-42.5 220zM338 518q0 -131 81.5 -215t192.5 -84q113 0 196 84t83 215
q0 132 -83 214.5t-196 82.5q-112 0 -193 -82.5t-81 -214.5z" />
    <glyph glyph-name="one.oldstyle" horiz-adv-x="776" 
d="M84 559v246l530 254v-1059h-249v684z" />
    <glyph glyph-name="two.oldstyle" horiz-adv-x="1069" 
d="M117 0v135l481 492q68 65 68 110q0 42 -36.5 71.5t-97.5 29.5q-64 0 -106 -33.5t-49 -97.5l-244 32q18 151 125.5 242.5t278.5 91.5q175 0 287 -95t112 -230q0 -137 -143 -273l-263 -248h406v-227h-819z" />
    <glyph glyph-name="three.oldstyle" horiz-adv-x="1079" 
d="M61 -123q9 5 110 55.5t110 55.5q31 -63 91 -106.5t126 -43.5q96 0 160.5 56t64.5 143q0 14 -4 32.5t-17.5 45t-35 47t-61.5 35t-91 12.5h-143v223h143q44 -1 76.5 16.5t47.5 44t21.5 48.5t6.5 39q0 48 -27.5 93.5t-91.5 57.5q-130 17 -207 -82l-197 129
q58 97 167.5 151.5t238.5 47.5q170 -9 278.5 -116.5t108.5 -258.5q0 -81 -45.5 -150t-120.5 -112q104 -39 169 -147.5t54 -217.5q-12 -119 -86 -210t-187.5 -135.5t-242.5 -35.5q-136 9 -248.5 86.5t-167.5 196.5z" />
    <glyph glyph-name="four.oldstyle" horiz-adv-x="1200" 
d="M37 -94l665 1048h246v-829h178v-219h-178v-291h-252v291h-659zM399 125h297v465z" />
    <glyph glyph-name="five.oldstyle" 
d="M78 -123q11 6 108.5 66.5t104.5 64.5q40 -75 109 -120.5t143 -45.5q130 0 208 67t78 163q0 113 -73 173t-185 60q-184 0 -309 -135l-141 86l112 698h760v-233h-559l-49 -272q41 33 111.5 52t136.5 19q124 0 223.5 -50t160 -153t60.5 -245q0 -213 -146 -345.5t-388 -132.5
q-139 0 -266 77.5t-199 205.5z" />
    <glyph glyph-name="six.oldstyle" horiz-adv-x="1173" 
d="M127 444q-7 82 -7 160t6.5 161t23.5 156.5t43.5 143t68.5 124.5t95.5 95.5t127.5 61.5t162 18q64 -2 117 -14.5t107 -40.5t100 -79.5t80 -125.5l-232 -98q-60 122 -180 122q-70 0 -123.5 -34.5t-84 -93.5t-44 -132t-8.5 -155q21 57 96 104t174 47q168 0 291.5 -125
t122.5 -329q-3 -190 -136 -310.5t-339 -119.5q-187 3 -315.5 129t-145.5 335zM399 430q0 -86 59 -146.5t142 -60.5q85 -2 144.5 56.5t60.5 144.5q2 85 -55.5 145.5t-141.5 61.5q-85 2 -146.5 -57t-62.5 -144z" />
    <glyph glyph-name="seven.oldstyle" horiz-adv-x="1060" 
d="M76 719v235h981l-641 -1339h-287l530 1104h-583z" />
    <glyph glyph-name="eight.oldstyle" horiz-adv-x="1196" 
d="M104 434q0 108 52.5 195t144.5 141q-98 95 -98 229q0 151 115 258t280 107q164 0 279.5 -107t115.5 -258q0 -136 -100 -229q92 -53 144.5 -141t52.5 -195q0 -124 -66 -228.5t-179 -165t-247 -60.5q-135 0 -248.5 60.5t-179.5 165t-66 228.5zM354 442q0 -92 72 -158.5
t172 -66.5q98 0 170 66.5t72 158.5q0 87 -67.5 154.5t-160.5 67.5h-37q-92 0 -156.5 -67.5t-64.5 -154.5zM446 991q0 -61 42 -103t112 -42q68 0 108 42.5t40 102.5q0 56 -41.5 97.5t-108.5 41.5t-109.5 -41.5t-42.5 -97.5z" />
    <glyph glyph-name="nine.oldstyle" horiz-adv-x="1134" 
d="M98 549q3 190 135.5 310.5t337.5 117.5q189 -3 316.5 -128t146.5 -335q6 -73 7 -142.5t-4 -144t-16 -141.5t-31.5 -132.5t-49 -120t-70 -100.5t-92.5 -77.5t-118 -48t-146 -13.5q-64 2 -117 15t-107 40.5t-99.5 79.5t-79.5 126l231 98q60 -123 180 -123q92 0 154.5 60
t87 152t18.5 204q-21 -58 -96.5 -105t-175.5 -47q-166 0 -289.5 125.5t-122.5 329.5zM356 535q-3 -85 54.5 -145t142.5 -62t146.5 56t62.5 142q0 87 -58.5 147t-142.5 62q-85 1 -144 -57t-61 -143z" />
    <glyph glyph-name="Lslash.sc" horiz-adv-x="888" 
d="M59 442v150l119 74v505h230v-364l161 102v-149l-161 -103v-448h446v-209h-676v514z" />
    <glyph glyph-name="Zcaron.sc" horiz-adv-x="1052" 
d="M96 0v178l555 789h-530v204h825v-176l-557 -788h557v-207h-850zM231 1575h172l127 -143l129 143h172l-192 -285h-215z" />
    <glyph glyph-name="exclam.sc" horiz-adv-x="593" 
d="M154 113q0 59 41 97t100 38q57 0 98 -38t41 -97q0 -57 -41 -95t-98 -38q-59 0 -100 37.5t-41 95.5zM166 1167h264l-33 -827h-198z" />
    <glyph glyph-name="ampersand.sc" horiz-adv-x="1196" 
d="M104 338q0 103 45.5 181.5t131.5 119.5q-53 28 -83 86t-30 135q0 126 97.5 223t234.5 97q205 0 321 -164l-182 -115q-52 66 -115 66q-60 0 -93.5 -35t-33.5 -84q0 -11 3 -25t11.5 -34t22.5 -36t39 -27t57 -11h199v137h205v-139h139v-176h-139v-187q0 -98 32.5 -136
t131.5 -38v-194q-131 2 -207 29.5t-109 99.5q-38 -61 -118 -96t-160 -35q-172 0 -286 101.5t-114 256.5zM334 375q-3 -79 52.5 -130.5t139.5 -51.5q86 0 144.5 65.5t58.5 179.5v99h-170q-108 0 -163 -45.5t-62 -116.5z" />
    <glyph glyph-name="question.sc" horiz-adv-x="874" 
d="M80 831q0 164 98.5 260.5t255.5 96.5q155 0 256 -91.5t101 -242.5q0 -120 -66 -207t-170 -119q-62 -18 -76.5 -49.5t-20.5 -123.5q-1 -11 -1 -17h-213q0 12 -1 32t-1 31q0 131 50 205.5t163 114.5q65 24 91.5 55t26.5 78q0 49 -41 82t-98 33q-59 0 -99.5 -38.5
t-43.5 -99.5h-211zM213 113q0 59 41 97t98 38q60 0 101 -38t41 -97q0 -58 -41.5 -95.5t-100.5 -37.5q-57 0 -98 38t-41 95z" />
    <glyph glyph-name="A.sc" horiz-adv-x="1167" 
d="M25 0l438 1171h242l438 -1171h-242l-104 281h-424l-107 -281h-241zM446 481h275l-139 418z" />
    <glyph glyph-name="B.sc" horiz-adv-x="1128" 
d="M168 0v1171h461q157 0 248.5 -86t91.5 -235q0 -159 -142 -223q96 -29 149.5 -109.5t53.5 -163.5q0 -150 -99.5 -252t-266.5 -102h-496zM395 205h256q64 0 103 46.5t39 108.5q0 57 -40.5 104.5t-105.5 47.5h-252v-307zM395 709h217q54 0 86.5 37t32.5 94q0 59 -33 93
t-92 34h-211v-258z" />
    <glyph glyph-name="C.sc" horiz-adv-x="1228" 
d="M96 580q0 166 78 304.5t214.5 219t301.5 80.5q145 0 268 -63.5t207 -174.5l-182 -131q-119 152 -293 152q-156 0 -260 -112t-104 -275q0 -160 104.5 -271.5t259.5 -111.5q89 0 167 42.5t130 116.5l182 -133q-79 -112 -205.5 -177.5t-273.5 -65.5q-165 0 -302 81
t-214.5 218.5t-77.5 300.5z" />
    <glyph glyph-name="D.sc" horiz-adv-x="1257" 
d="M168 0v1171h459q165 0 286.5 -77.5t182.5 -210t61 -301.5q0 -167 -61 -298t-182.5 -207.5t-286.5 -76.5h-459zM395 209h232q144 0 222.5 106t78.5 267q0 107 -32.5 191.5t-102 137t-166.5 52.5h-232v-754z" />
    <glyph glyph-name="E.sc" horiz-adv-x="1021" 
d="M168 0v1171h729v-204h-504v-287h443v-205h-443v-270h518v-205h-743z" />
    <glyph glyph-name="F.sc" horiz-adv-x="954" 
d="M168 0v1171h721v-204h-494v-287h391v-205h-391v-475h-227z" />
    <glyph glyph-name="G.sc" horiz-adv-x="1327" 
d="M94 580q0 166 79 304.5t216.5 219t302.5 80.5q127 0 238.5 -49.5t189.5 -135.5l-164 -145h-4q-50 54 -118 84.5t-142 30.5q-155 0 -261.5 -113.5t-106.5 -275.5q0 -159 107 -273t261 -114q75 0 142.5 26t113.5 78.5t49 120.5h-317v190h577q0 -159 -40.5 -280t-116 -196.5
t-178 -113.5t-230.5 -38q-124 0 -235 47.5t-190.5 128.5t-126 191.5t-46.5 232.5z" />
    <glyph glyph-name="H.sc" horiz-adv-x="1243" 
d="M168 0v1171h225v-485h453v485h229v-1171h-229v479h-453v-479h-225z" />
    <glyph glyph-name="I.sc" horiz-adv-x="561" 
d="M168 0v1171h225v-1171h-225z" />
    <glyph glyph-name="J.sc" horiz-adv-x="563" 
d="M-145 -379l20 209q51 -18 141 -18q78 0 115 49t37 127v1183h227v-1183q0 -84 -21 -153t-64.5 -124t-118.5 -86t-175 -31q-65 0 -161 27z" />
    <glyph glyph-name="K.sc" horiz-adv-x="1069" 
d="M168 0v1171h229v-407l303 407h269l-447 -581l551 -590h-297l-379 420v-420h-229z" />
    <glyph glyph-name="L.sc" horiz-adv-x="876" 
d="M168 0v1171h227v-966h447v-205h-674z" />
    <glyph glyph-name="M.sc" horiz-adv-x="1605" 
d="M100 0l144 1171h192l365 -774l366 774h195l141 -1171h-227l-88 739l-293 -608h-180l-297 608l-90 -739h-228z" />
    <glyph glyph-name="N.sc" horiz-adv-x="1206" 
d="M168 0v1171h209l432 -733v733h229v-1171h-207l-438 745v-745h-225z" />
    <glyph glyph-name="O.sc" horiz-adv-x="1380" 
d="M96 580q0 166 78 304.5t214.5 219t299.5 80.5q165 0 302.5 -80.5t216.5 -219t79 -304.5q0 -122 -46.5 -232.5t-126 -191.5t-190.5 -128.5t-235 -47.5q-122 0 -232 47.5t-189 128.5t-125 191.5t-46 232.5zM324 580q0 -156 105.5 -265.5t258.5 -109.5q155 0 263 109.5
t108 265.5q0 157 -108 267.5t-263 110.5q-153 0 -258.5 -110.5t-105.5 -267.5z" />
    <glyph glyph-name="P.sc" horiz-adv-x="1085" 
d="M168 0v1171h477q95 0 169 -32.5t118.5 -87t67 -121t22.5 -139.5q0 -74 -22.5 -140.5t-67 -120t-118.5 -85t-169 -31.5h-250v-414h-227zM395 616h238q76 0 118 52.5t42 122.5q0 69 -40 122.5t-112 53.5h-246v-351z" />
    <glyph glyph-name="Q.sc" horiz-adv-x="1386" 
d="M94 580q0 166 79 304.5t216.5 219t302.5 80.5q166 0 304 -80.5t217 -219t79 -304.5q0 -148 -69.5 -277.5t-188.5 -214.5l115 -188l-168 -105l-127 207q-80 -22 -162 -22q-124 0 -235 47.5t-190.5 128.5t-126 191.5t-46.5 232.5zM324 580q0 -148 95.5 -251t242.5 -124
q9 -1 21.5 -1t27.5 0.5t20 0.5q-15 29 -65 104l-37 60l168 102l118 -192q67 53 107.5 133t40.5 168q0 161 -108 274t-263 113t-261.5 -112.5t-106.5 -274.5z" />
    <glyph glyph-name="R.sc" horiz-adv-x="1124" 
d="M168 0v1171h471q93 0 167.5 -32.5t119.5 -86.5t68.5 -121t23.5 -140q0 -134 -75 -237.5t-218 -131.5l299 -422h-276l-275 414h-78v-414h-227zM395 616h226q77 0 117 52t40 123q0 70 -38 123t-111 53h-234v-351z" />
    <glyph glyph-name="S.sc" horiz-adv-x="1030" 
d="M100 348h230q2 -68 54 -115t138 -47q83 0 132.5 37t54.5 96q5 56 -34 94t-122 58l-143 41q-297 81 -297 328q0 152 115 248t282 96q171 0 281 -98t110 -263h-225q0 68 -46 110t-122 42q-70 0 -119 -37t-49 -94q0 -90 135 -127l141 -41q90 -25 156 -65t101.5 -89.5
t51 -101t13.5 -107.5q-7 -152 -128 -242.5t-288 -90.5q-186 0 -304 106t-118 262z" />
    <glyph glyph-name="T.sc" horiz-adv-x="976" 
d="M47 965v206h883v-206h-326v-965h-231v965h-326z" />
    <glyph glyph-name="U.sc" horiz-adv-x="1204" 
d="M156 412v759h231v-759q0 -94 63.5 -154.5t151.5 -60.5q89 0 154 60.5t65 154.5v759h228v-759q0 -127 -62 -227t-163.5 -152.5t-221.5 -52.5t-221 52.5t-163 152.5t-62 227z" />
    <glyph glyph-name="V.sc" horiz-adv-x="1034" 
d="M57 1171h238l221 -786l221 786h240l-356 -1171h-205z" />
    <glyph glyph-name="W.sc" horiz-adv-x="1576" 
d="M37 1171h246l243 -776l172 617h183l170 -615l245 774h246l-399 -1171h-182l-173 631l-172 -631h-182z" />
    <glyph glyph-name="X.sc" horiz-adv-x="1155" 
d="M35 0l405 627l-366 544h274l227 -360l234 360h270l-368 -544l409 -627h-270l-275 436l-270 -436h-270z" />
    <glyph glyph-name="Y.sc" horiz-adv-x="1171" 
d="M18 1171h271l295 -440l297 440h276l-457 -639v-532h-231v532z" />
    <glyph glyph-name="Z.sc" horiz-adv-x="1052" 
d="M96 0v178l555 789h-530v204h825v-176l-557 -788h557v-207h-850z" />
    <glyph glyph-name="Scaron.sc" horiz-adv-x="1030" 
d="M100 348h230q2 -68 54 -115t138 -47q83 0 132.5 37t54.5 96q5 56 -34 94t-122 58l-143 41q-297 81 -297 328q0 152 115 248t282 96q171 0 281 -98t110 -263h-225q0 68 -46 110t-122 42q-70 0 -119 -37t-49 -94q0 -90 135 -127l141 -41q90 -25 156 -65t101.5 -89.5
t51 -101t13.5 -107.5q-7 -152 -128 -242.5t-288 -90.5q-186 0 -304 106t-118 262zM209 1575h170l129 -143l129 143h172l-195 -285h-215z" />
    <glyph glyph-name="OE.sc" horiz-adv-x="1910" 
d="M94 580q0 166 78 304.5t215 219t301 80.5q105 0 200 -38t167 -110v135h731v-206h-502v-285h438v-207h-438v-264h516v-209h-745v125q-74 -68 -169.5 -106.5t-197.5 -38.5q-123 0 -233.5 47.5t-189.5 128.5t-125 191.5t-46 232.5zM322 580q0 -155 106 -264t260 -109
q153 0 260 112.5t107 266.5q-5 152 -111.5 261t-255.5 109q-155 0 -260.5 -109.5t-105.5 -266.5z" />
    <glyph glyph-name="Ydieresis.sc" horiz-adv-x="1171" 
d="M18 1171h271l295 -440l297 440h276l-457 -639v-532h-231v532zM307 1450q0 49 36 82t87 33t85 -33t34 -82q0 -51 -34 -84t-85 -33q-52 0 -87.5 33.5t-35.5 83.5zM602 1450q0 49 35.5 82t85.5 33q51 0 86 -33t35 -82q0 -51 -35 -84t-86 -33q-50 0 -85.5 33.5t-35.5 83.5z
" />
    <glyph glyph-name="exclamdown.sc" horiz-adv-x="593" 
d="M154 1055q0 58 41 95.5t100 37.5q57 0 98 -38t41 -95q0 -59 -41 -97t-98 -38q-59 0 -100 38t-41 97zM166 0l33 827h198l33 -827h-264z" />
    <glyph glyph-name="questiondown.sc" horiz-adv-x="874" 
d="M84 313q0 121 65.5 207.5t169.5 118.5q62 18 77 49.5t21 127.5v3t0.5 3t0.5 3.5v3.5h213q0 -11 1 -31t1 -32q0 -131 -50 -205.5t-163 -114.5q-65 -24 -92 -55t-27 -78q0 -49 41 -81.5t98 -32.5q59 0 100 38t44 99h211q0 -163 -98.5 -259.5t-256.5 -96.5q-155 0 -255.5 91
t-100.5 242zM381 1055q0 58 41 95.5t100 37.5q57 0 98.5 -38t41.5 -95q0 -59 -41.5 -97t-98.5 -38q-59 0 -100 38t-41 97z" />
    <glyph glyph-name="Agrave.sc" horiz-adv-x="1167" 
d="M25 0l438 1171h242l438 -1171h-242l-104 281h-424l-107 -281h-241zM268 1577h232l184 -285h-174zM446 481h275l-139 418z" />
    <glyph glyph-name="Aacute.sc" horiz-adv-x="1167" 
d="M25 0l438 1171h242l438 -1171h-242l-104 281h-424l-107 -281h-241zM446 481h275l-139 418zM483 1286l187 287h229l-240 -287h-176z" />
    <glyph glyph-name="Acircumflex.sc" horiz-adv-x="1167" 
d="M25 0l438 1171h242l438 -1171h-242l-104 281h-424l-107 -281h-241zM276 1294l193 287h213l195 -287h-175l-127 146l-129 -146h-170zM446 481h275l-139 418z" />
    <glyph glyph-name="Atilde.sc" horiz-adv-x="1167" 
d="M25 0l438 1171h242l438 -1171h-242l-104 281h-424l-107 -281h-241zM334 1325q6 104 47.5 157t99.5 62q37 3 88.5 -31t79.5 -34q12 0 25 16t14 51h131q-3 -61 -20 -105.5t-42.5 -68t-52 -34.5t-55.5 -11q-32 0 -78.5 35t-68.5 35q-12 0 -24.5 -18.5t-12.5 -53.5h-131z
M446 481h275l-139 418z" />
    <glyph glyph-name="Adieresis.sc" horiz-adv-x="1167" 
d="M25 0l438 1171h242l438 -1171h-242l-104 281h-424l-107 -281h-241zM293 1450q0 49 36.5 82t88.5 33q50 0 84.5 -33t34.5 -82q0 -50 -34.5 -83.5t-84.5 -33.5q-52 0 -88.5 33.5t-36.5 83.5zM446 481h275l-139 418zM588 1450q0 49 36 82t87 33t85.5 -33t34.5 -82
q0 -51 -34.5 -84t-85.5 -33q-52 0 -87.5 33.5t-35.5 83.5z" />
    <glyph glyph-name="Aring.sc" horiz-adv-x="1167" 
d="M25 0l438 1171h242l438 -1171h-242l-104 281h-424l-107 -281h-241zM375 1483q0 86 57.5 144.5t140.5 58.5q86 0 144.5 -58.5t58.5 -144.5q0 -85 -58.5 -142t-144.5 -57q-83 0 -140.5 57t-57.5 142zM446 481h275l-139 418zM489 1483q0 -35 25 -59.5t59 -24.5q37 0 64 24.5
t27 59.5t-27 61.5t-64 26.5q-34 0 -59 -26.5t-25 -61.5z" />
    <glyph glyph-name="AE.sc" horiz-adv-x="1642" 
d="M4 0l741 1171h773v-206h-502v-285h438v-207h-438v-264h518v-209h-746v274h-335l-177 -274h-272zM584 496h204v354z" />
    <glyph glyph-name="Ccedilla.sc" horiz-adv-x="1230" 
d="M96 582q0 166 78 304.5t214.5 219t301.5 80.5q145 0 268 -63.5t207 -174.5l-182 -131q-55 72 -130.5 112t-162.5 40q-156 0 -260 -112t-104 -275q0 -158 104.5 -269.5t259.5 -111.5q89 0 167 42t130 115l182 -133q-75 -103 -183 -165t-241 -74q4 -7 22 -41t23 -46t12 -36
t7 -45q0 -72 -53.5 -125t-130.5 -53q-75 0 -128.5 59t-50.5 156l134 -7q0 -31 4 -45q6 -21 25 -29.5t40 -0.5q19 7 25.5 28t-0.5 41l-53 144q-227 25 -376 194.5t-149 401.5z" />
    <glyph glyph-name="Egrave.sc" horiz-adv-x="1021" 
d="M168 0v1171h729v-204h-504v-287h443v-205h-443v-270h518v-205h-743zM250 1577h233l187 -285h-176z" />
    <glyph glyph-name="Eacute.sc" horiz-adv-x="1021" 
d="M168 0v1171h729v-204h-504v-287h443v-205h-443v-270h518v-205h-743zM377 1292l184 285h234l-244 -285h-174z" />
    <glyph glyph-name="Ecircumflex.sc" horiz-adv-x="1021" 
d="M168 0v1171h729v-204h-504v-287h443v-205h-443v-270h518v-205h-743zM207 1294l190 287h215l193 -287h-170l-129 146l-129 -146h-170z" />
    <glyph glyph-name="Edieresis.sc" horiz-adv-x="1021" 
d="M168 0v1171h729v-204h-504v-287h443v-205h-443v-270h518v-205h-743zM240 1450q0 49 36 82t89 33q48 0 83 -33t35 -82q0 -50 -35 -83.5t-83 -33.5q-53 0 -89 33t-36 84zM532 1450q0 49 36 82t89 33q50 0 84.5 -33t34.5 -82q0 -50 -34.5 -83.5t-84.5 -33.5q-53 0 -89 33
t-36 84z" />
    <glyph glyph-name="Igrave.sc" horiz-adv-x="561" 
d="M-31 1577h234l186 -285h-176zM168 0v1171h225v-1171h-225z" />
    <glyph glyph-name="Iacute.sc" horiz-adv-x="561" 
d="M164 1311l192 272h236l-248 -272h-180zM168 0v1171h225v-1171h-225z" />
    <glyph glyph-name="Icircumflex.sc" horiz-adv-x="561" 
d="M-16 1294l190 287h215l193 -287h-170l-129 146l-129 -146h-170zM168 0v1171h225v-1171h-225z" />
    <glyph glyph-name="Idieresis.sc" horiz-adv-x="561" 
d="M14 1450q0 49 36 82t89 33q48 0 83.5 -33t35.5 -82q0 -50 -35.5 -83.5t-83.5 -33.5q-53 0 -89 33t-36 84zM168 0v1171h225v-1171h-225zM307 1450q0 49 36 82t89 33q50 0 84.5 -33t34.5 -82q0 -50 -34.5 -83.5t-84.5 -33.5q-53 0 -89 33t-36 84z" />
    <glyph glyph-name="Eth.sc" horiz-adv-x="1269" 
d="M27 500v147h157v524h457q164 0 284.5 -77.5t181 -210t60.5 -301.5q0 -167 -60.5 -298t-181 -207.5t-284.5 -76.5h-457v500h-157zM412 213h229q143 0 221 105t78 264q0 163 -78 269.5t-221 106.5h-229v-311h231v-147h-231v-287z" />
    <glyph glyph-name="Ntilde.sc" horiz-adv-x="1206" 
d="M168 0v1171h209l432 -733v733h229v-1171h-207l-438 745v-745h-225zM358 1325q7 114 57 167.5t113 53.5q35 0 80.5 -33.5t67.5 -33.5q6 0 14 5t15.5 21.5t7.5 40.5h131q-2 -61 -18.5 -105.5t-42.5 -68t-52.5 -34.5t-54.5 -11q-32 0 -80 35t-68 35q-12 0 -24 -18.5
t-12 -53.5h-134z" />
    <glyph glyph-name="Ograve.sc" horiz-adv-x="1380" 
d="M96 580q0 166 78 304.5t214.5 219t299.5 80.5q165 0 302.5 -80.5t216.5 -219t79 -304.5q0 -122 -46.5 -232.5t-126 -191.5t-190.5 -128.5t-235 -47.5q-122 0 -232 47.5t-189 128.5t-125 191.5t-46 232.5zM324 580q0 -156 105.5 -265.5t258.5 -109.5q155 0 263 109.5
t108 265.5q0 157 -108 267.5t-263 110.5q-153 0 -258.5 -110.5t-105.5 -267.5zM338 1577h231l187 -285h-174z" />
    <glyph glyph-name="Oacute.sc" horiz-adv-x="1380" 
d="M96 580q0 166 78 304.5t214.5 219t299.5 80.5q165 0 302.5 -80.5t216.5 -219t79 -304.5q0 -122 -46.5 -232.5t-126 -191.5t-190.5 -128.5t-235 -47.5q-122 0 -232 47.5t-189 128.5t-125 191.5t-46 232.5zM324 580q0 -156 105.5 -265.5t258.5 -109.5q155 0 263 109.5
t108 265.5q0 157 -108 267.5t-263 110.5q-153 0 -258.5 -110.5t-105.5 -267.5zM602 1292l184 285h234l-244 -285h-174z" />
    <glyph glyph-name="Ocircumflex.sc" horiz-adv-x="1380" 
d="M96 580q0 166 78 304.5t214.5 219t299.5 80.5q165 0 302.5 -80.5t216.5 -219t79 -304.5q0 -122 -46.5 -232.5t-126 -191.5t-190.5 -128.5t-235 -47.5q-122 0 -232 47.5t-189 128.5t-125 191.5t-46 232.5zM324 580q0 -156 105.5 -265.5t258.5 -109.5q155 0 263 109.5
t108 265.5q0 157 -108 267.5t-263 110.5q-153 0 -258.5 -110.5t-105.5 -267.5zM391 1294l193 287h213l192 -287h-170l-131 148l-125 -148h-172z" />
    <glyph glyph-name="Otilde.sc" horiz-adv-x="1380" 
d="M96 580q0 166 78 304.5t214.5 219t299.5 80.5q165 0 302.5 -80.5t216.5 -219t79 -304.5q0 -122 -46.5 -232.5t-126 -191.5t-190.5 -128.5t-235 -47.5q-122 0 -232 47.5t-189 128.5t-125 191.5t-46 232.5zM324 580q0 -156 105.5 -265.5t258.5 -109.5q155 0 263 109.5
t108 265.5q0 157 -108 267.5t-263 110.5q-153 0 -258.5 -110.5t-105.5 -267.5zM449 1325q5 114 54.5 167.5t112.5 53.5q37 0 82 -33.5t66 -33.5q12 0 25 16t14 51h129q-2 -61 -18.5 -105.5t-42 -68t-52 -34.5t-55.5 -11q-31 0 -78 35t-70 35q-12 0 -24 -18.5t-12 -53.5h-131
z" />
    <glyph glyph-name="Odieresis.sc" horiz-adv-x="1380" 
d="M96 580q0 166 78 304.5t214.5 219t299.5 80.5q165 0 302.5 -80.5t216.5 -219t79 -304.5q0 -122 -46.5 -232.5t-126 -191.5t-190.5 -128.5t-235 -47.5q-122 0 -232 47.5t-189 128.5t-125 191.5t-46 232.5zM324 580q0 -156 105.5 -265.5t258.5 -109.5q155 0 263 109.5
t108 265.5q0 157 -108 267.5t-263 110.5q-153 0 -258.5 -110.5t-105.5 -267.5zM422 1450q0 49 36 82t87 33q50 0 84.5 -33t34.5 -82q0 -50 -34.5 -83.5t-84.5 -33.5q-52 0 -87.5 33.5t-35.5 83.5zM717 1450q0 49 35 82t86 33t85.5 -33t34.5 -82q0 -51 -34.5 -84t-85.5 -33
t-86 33t-35 84z" />
    <glyph glyph-name="Oslash.sc" horiz-adv-x="1378" 
d="M94 580q0 166 78 304.5t214.5 219t299.5 80.5q213 0 377 -135l135 137l86 -86l-135 -137q135 -170 135 -383q0 -122 -46.5 -232.5t-126 -191.5t-190.5 -128.5t-235 -47.5q-202 0 -367 126l-135 -139l-86 88l133 140q-137 170 -137 385zM322 580q0 -130 69 -224l514 531
q-97 71 -219 71q-153 0 -258.5 -110.5t-105.5 -267.5zM477 270q86 -65 209 -65q155 0 263 109.5t108 265.5q0 121 -68 219z" />
    <glyph glyph-name="Ugrave.sc" horiz-adv-x="1204" 
d="M156 412v759h231v-759q0 -94 63.5 -154.5t151.5 -60.5q89 0 154 60.5t65 154.5v759h228v-759q0 -127 -62 -227t-163.5 -152.5t-221.5 -52.5t-221 52.5t-163 152.5t-62 227zM322 1577h231l184 -285h-174z" />
    <glyph glyph-name="Uacute.sc" horiz-adv-x="1204" 
d="M156 412v759h231v-759q0 -94 63.5 -154.5t151.5 -60.5q89 0 154 60.5t65 154.5v759h228v-759q0 -127 -62 -227t-163.5 -152.5t-221.5 -52.5t-221 52.5t-163 152.5t-62 227zM459 1292l188 285h230l-242 -285h-176z" />
    <glyph glyph-name="Ucircumflex.sc" horiz-adv-x="1204" 
d="M156 412v759h231v-759q0 -94 63.5 -154.5t151.5 -60.5q89 0 154 60.5t65 154.5v759h228v-759q0 -127 -62 -227t-163.5 -152.5t-221.5 -52.5t-221 52.5t-163 152.5t-62 227zM301 1294l193 287h213l194 -287h-172l-129 148l-127 -148h-172z" />
    <glyph glyph-name="Udieresis.sc" horiz-adv-x="1204" 
d="M156 412v759h231v-759q0 -94 63.5 -154.5t151.5 -60.5q89 0 154 60.5t65 154.5v759h228v-759q0 -127 -62 -227t-163.5 -152.5t-221.5 -52.5t-221 52.5t-163 152.5t-62 227zM332 1450q0 49 36.5 82t88.5 33q50 0 83 -33t33 -82q0 -51 -33 -84t-83 -33q-52 0 -88.5 33.5
t-36.5 83.5zM627 1450q0 49 36 82t87 33t85.5 -33t34.5 -82q0 -51 -34.5 -84t-85.5 -33q-52 0 -87.5 33.5t-35.5 83.5z" />
    <glyph glyph-name="Yacute.sc" horiz-adv-x="1171" 
d="M18 1171h271l295 -440l297 440h276l-457 -639v-532h-231v532zM455 1292l184 285h233l-243 -285h-174z" />
    <glyph glyph-name="Thorn.sc" horiz-adv-x="1017" 
d="M168 0v1171h227v-194h183q162 0 268 -103.5t106 -273.5q0 -169 -106.5 -274t-267.5 -105h-183v-221h-227zM395 420h174q64 0 111 48.5t47 127.5q0 82 -47 130.5t-113 51.5h-172v-358z" />
    <glyph glyph-name="Amacron.sc" horiz-adv-x="1167" 
d="M25 0l438 1171h242l438 -1171h-242l-104 281h-424l-107 -281h-241zM344 1360v151h465v-151h-465zM446 481h275l-139 418z" />
    <glyph glyph-name="Abreve.sc" horiz-adv-x="1167" 
d="M25 0l438 1171h242l438 -1171h-242l-104 281h-424l-107 -281h-241zM346 1542h150q0 -92 79 -92q39 0 59.5 27t20.5 65h152q0 -104 -64.5 -166.5t-167.5 -62.5q-113 0 -171 66.5t-58 162.5zM446 481h275l-139 418z" />
    <glyph glyph-name="Cacute.sc" horiz-adv-x="1228" 
d="M96 580q0 166 78 304.5t214.5 219t301.5 80.5q145 0 268 -63.5t207 -174.5l-182 -131q-119 152 -293 152q-156 0 -260 -112t-104 -275q0 -160 104.5 -271.5t259.5 -111.5q89 0 167 42.5t130 116.5l182 -133q-79 -112 -205.5 -177.5t-273.5 -65.5q-165 0 -302 81
t-214.5 218.5t-77.5 300.5zM573 1292l187 285h231l-241 -285h-177z" />
    <glyph glyph-name="Ccircumflex.sc" horiz-adv-x="1228" 
d="M96 580q0 166 78 304.5t214.5 219t301.5 80.5q145 0 268 -63.5t207 -174.5l-182 -131q-119 152 -293 152q-156 0 -260 -112t-104 -275q0 -160 104.5 -271.5t259.5 -111.5q89 0 167 42.5t130 116.5l182 -133q-79 -112 -205.5 -177.5t-273.5 -65.5q-165 0 -302 81
t-214.5 218.5t-77.5 300.5zM385 1294l193 287h213l192 -287h-170l-129 146l-129 -146h-170z" />
    <glyph glyph-name="Cdotaccent.sc" horiz-adv-x="1228" 
d="M96 580q0 166 78 304.5t214.5 219t301.5 80.5q145 0 268 -63.5t207 -174.5l-182 -131q-119 152 -293 152q-156 0 -260 -112t-104 -275q0 -160 104.5 -271.5t259.5 -111.5q89 0 167 42.5t130 116.5l182 -133q-79 -112 -205.5 -177.5t-273.5 -65.5q-165 0 -302 81
t-214.5 218.5t-77.5 300.5zM547 1462q0 52 36.5 86.5t90.5 34.5t91.5 -34.5t37.5 -86.5q0 -53 -37 -88t-92 -35q-54 0 -90.5 34.5t-36.5 88.5z" />
    <glyph glyph-name="Ccaron.sc" horiz-adv-x="1228" 
d="M96 580q0 166 78 304.5t214.5 219t301.5 80.5q145 0 268 -63.5t207 -174.5l-182 -131q-119 152 -293 152q-156 0 -260 -112t-104 -275q0 -160 104.5 -271.5t259.5 -111.5q89 0 167 42.5t130 116.5l182 -133q-79 -112 -205.5 -177.5t-273.5 -65.5q-165 0 -302 81
t-214.5 218.5t-77.5 300.5zM399 1575h170l129 -143l129 143h172l-194 -285h-215z" />
    <glyph glyph-name="Dcaron.sc" horiz-adv-x="1257" 
d="M168 0v1171h459q165 0 286.5 -77.5t182.5 -210t61 -301.5q0 -167 -61 -298t-182.5 -207.5t-286.5 -76.5h-459zM324 1575h172l127 -143l131 143h172l-195 -285h-215zM395 209h232q144 0 222.5 106t78.5 267q0 107 -32.5 191.5t-102 137t-166.5 52.5h-232v-754z" />
    <glyph glyph-name="Aogonek.sc" horiz-adv-x="1167" 
d="M25 0l438 1171h242l438 -1171h-131l-51 -158q-15 -55 26 -69q33 -16 53.5 15t14.5 60l131 7q3 -99 -49.5 -157t-128.5 -58q-77 0 -130 53t-53 125q0 19 3.5 37.5t13 39.5t16 34t21 39.5t20.5 37.5l-102 275h-424l-107 -281h-241zM446 481h277l-139 416z" />
    <glyph glyph-name="Emacron.sc" horiz-adv-x="1021" 
d="M168 0v1171h729v-204h-504v-287h443v-205h-443v-270h518v-205h-743zM285 1360v151h463v-151h-463z" />
    <glyph glyph-name="Ebreve.sc" horiz-adv-x="1021" 
d="M168 0v1171h729v-204h-504v-287h443v-205h-443v-270h518v-205h-743zM274 1542h150q0 -44 21 -68t61 -24q39 0 58.5 26.5t19.5 65.5h151q0 -105 -63 -167t-166 -62q-112 0 -172 67t-60 162z" />
    <glyph glyph-name="Edotaccent.sc" horiz-adv-x="1021" 
d="M168 0v1171h729v-204h-504v-287h443v-205h-443v-270h518v-205h-743zM401 1462q0 52 37.5 86.5t91.5 34.5q53 0 90 -34.5t37 -86.5q0 -53 -37 -88t-90 -35q-55 0 -92 35t-37 88z" />
    <glyph glyph-name="Ecaron.sc" horiz-adv-x="1021" 
d="M168 0v1171h729v-204h-504v-287h443v-205h-443v-270h518v-205h-743zM211 1575h170l129 -143l129 143h172l-195 -285h-215z" />
    <glyph glyph-name="Gcircumflex.sc" horiz-adv-x="1327" 
d="M94 580q0 166 79 304.5t216.5 219t302.5 80.5q127 0 238.5 -49.5t189.5 -135.5l-164 -145h-4q-50 54 -118 84.5t-142 30.5q-155 0 -261.5 -113.5t-106.5 -275.5q0 -159 107 -273t261 -114q75 0 142.5 26t113.5 78.5t49 120.5h-317v190h577q0 -159 -40.5 -280t-116 -196.5
t-178 -113.5t-230.5 -38q-124 0 -235 47.5t-190.5 128.5t-126 191.5t-46.5 232.5zM369 1294l192 287h213l195 -287h-172l-129 148l-127 -148h-172z" />
    <glyph glyph-name="Gbreve.sc" horiz-adv-x="1327" 
d="M94 580q0 166 79 304.5t216.5 219t302.5 80.5q127 0 238.5 -49.5t189.5 -135.5l-164 -145h-4q-50 54 -118 84.5t-142 30.5q-155 0 -261.5 -113.5t-106.5 -275.5q0 -159 107 -273t261 -114q75 0 142.5 26t113.5 78.5t49 120.5h-317v190h577q0 -159 -40.5 -280t-116 -196.5
t-178 -113.5t-230.5 -38q-124 0 -235 47.5t-190.5 128.5t-126 191.5t-46.5 232.5zM438 1542h150q0 -44 21 -68t61 -24q39 0 58.5 26.5t19.5 65.5h151q0 -105 -63 -167t-166 -62q-112 0 -172 67t-60 162z" />
    <glyph glyph-name="Eogonek.sc" horiz-adv-x="1021" 
d="M168 0v1171h729v-204h-504v-287h443v-205h-443v-270h518v-203l-59 -154q-9 -20 -2.5 -41t27.5 -28q35 -16 55.5 17t11.5 59l133 6q3 -97 -49.5 -155t-128.5 -58q-78 0 -130 52.5t-52 125.5q0 53 14 80l55 94h-618z" />
    <glyph glyph-name="Dcroat.sc" horiz-adv-x="1269" 
d="M27 498v153h157v520h457q164 0 284.5 -77.5t181 -210t60.5 -301.5q0 -167 -60.5 -298t-181 -207.5t-284.5 -76.5h-457v498h-157zM412 213h229q143 0 221 105t78 264q0 163 -78 269.5t-221 106.5h-229v-307h231v-153h-231v-285z" />
    <glyph glyph-name="Gdotaccent.sc" horiz-adv-x="1327" 
d="M94 580q0 166 79 304.5t216.5 219t302.5 80.5q127 0 238.5 -49.5t189.5 -135.5l-164 -145h-4q-50 54 -118 84.5t-142 30.5q-155 0 -261.5 -113.5t-106.5 -275.5q0 -159 107 -273t261 -114q75 0 142.5 26t113.5 78.5t49 120.5h-317v190h577q0 -159 -40.5 -280t-116 -196.5
t-178 -113.5t-230.5 -38q-124 0 -235 47.5t-190.5 128.5t-126 191.5t-46.5 232.5zM561 1462q0 52 37.5 86.5t91.5 34.5q53 0 90 -34.5t37 -86.5q0 -53 -37 -88t-90 -35q-55 0 -92 35t-37 88z" />
    <glyph glyph-name="Hcircumflex.sc" horiz-adv-x="1243" 
d="M168 0v1171h225v-485h453v485h229v-1171h-229v479h-453v-479h-225zM322 1294l192 287h213l193 -287h-170l-129 146l-127 -146h-172z" />
    <glyph glyph-name="Hbar.sc" horiz-adv-x="1265" 
d="M59 866v125h119v180h228v-180h452v180h229v-180h121v-125h-121v-866h-229v479h-452v-479h-228v866h-119zM406 686h452v180h-452v-180z" />
    <glyph glyph-name="Itilde.sc" horiz-adv-x="561" 
d="M39 1325q5 114 55 167.5t113 53.5q36 0 80.5 -33.5t66.5 -33.5q12 0 25 16t14 51h131q-3 -61 -20 -105.5t-42.5 -68t-52 -34.5t-55.5 -11q-32 0 -79 35t-68 35q-12 0 -24.5 -18.5t-12.5 -53.5h-131zM168 0v1171h225v-1171h-225z" />
    <glyph glyph-name="Imacron.sc" horiz-adv-x="561" 
d="M49 1360v151h465v-151h-465zM168 0v1171h225v-1171h-225z" />
    <glyph glyph-name="Iogonek.sc" horiz-adv-x="561" 
d="M92 -182q0 47 17 82l59 108v1163h225v-1171h-108l-56 -158q-15 -55 25 -69q33 -16 53.5 15t14.5 60l133 7q0 -98 -52 -156.5t-127 -58.5q-78 0 -131 53t-53 125z" />
    <glyph glyph-name="IJ.sc" horiz-adv-x="1124" 
d="M168 0v1171h225v-1171h-225zM416 -379l20 209q51 -18 142 -18q78 0 114.5 48.5t36.5 127.5v1183h227v-1183q0 -84 -21 -153t-64 -124t-118 -86t-175 -31q-66 0 -162 27z" />
    <glyph glyph-name="Jcircumflex.sc" horiz-adv-x="563" 
d="M-145 -379l20 209q51 -18 141 -18q78 0 115 49t37 127v1183h227v-1183q0 -84 -21 -153t-64.5 -124t-118.5 -86t-175 -31q-65 0 -161 27zM-23 1294l193 287h213l195 -287h-172l-130 146l-126 -146h-173z" />
    <glyph glyph-name="Lacute.sc" horiz-adv-x="876" 
d="M168 0v1171h227v-966h447v-205h-674zM168 1284l182 287h234l-242 -287h-174z" />
    <glyph glyph-name="Lcaron.sc" horiz-adv-x="888" 
d="M168 0v1171h227v-966h447v-205h-674zM498 807q88 123 104 256q8 44 8 106h191q-7 -143 -54 -247.5t-110 -155.5z" />
    <glyph glyph-name="Ldot.sc" horiz-adv-x="876" 
d="M168 0v1171h227v-966h447v-205h-674zM518 498q0 46 35 78t84 32q48 0 82.5 -32.5t34.5 -77.5q0 -50 -34.5 -82.5t-82.5 -32.5q-50 0 -84.5 32.5t-34.5 82.5z" />
    <glyph glyph-name="Nacute.sc" horiz-adv-x="1206" 
d="M168 0v1171h209l432 -733v733h229v-1171h-207l-438 745v-745h-225zM481 1292l187 285h231l-244 -285h-174z" />
    <glyph glyph-name="Ncaron.sc" horiz-adv-x="1206" 
d="M168 0v1171h209l432 -733v733h229v-1171h-207l-438 745v-745h-225zM295 1575h170l129 -143l127 143h172l-193 -285h-215z" />
    <glyph glyph-name="Omacron.sc" horiz-adv-x="1380" 
d="M96 580q0 166 78 304.5t214.5 219t299.5 80.5q165 0 302.5 -80.5t216.5 -219t79 -304.5q0 -122 -46.5 -232.5t-126 -191.5t-190.5 -128.5t-235 -47.5q-122 0 -232 47.5t-189 128.5t-125 191.5t-46 232.5zM324 580q0 -156 105.5 -265.5t258.5 -109.5q155 0 263 109.5
t108 265.5q0 157 -108 267.5t-263 110.5q-153 0 -258.5 -110.5t-105.5 -267.5zM457 1360v151h465v-151h-465z" />
    <glyph glyph-name="Obreve.sc" horiz-adv-x="1380" 
d="M96 580q0 166 78 304.5t214.5 219t299.5 80.5q165 0 302.5 -80.5t216.5 -219t79 -304.5q0 -122 -46.5 -232.5t-126 -191.5t-190.5 -128.5t-235 -47.5q-122 0 -232 47.5t-189 128.5t-125 191.5t-46 232.5zM324 580q0 -156 105.5 -265.5t258.5 -109.5q155 0 263 109.5
t108 265.5q0 157 -108 267.5t-263 110.5q-153 0 -258.5 -110.5t-105.5 -267.5zM459 1542h149q0 -43 20.5 -67.5t59.5 -24.5q40 0 60 26.5t20 65.5h152q0 -105 -63.5 -167t-168.5 -62q-112 0 -170.5 66.5t-58.5 162.5z" />
    <glyph glyph-name="Ohungarumlaut.sc" horiz-adv-x="1380" 
d="M96 580q0 166 78 304.5t214.5 219t299.5 80.5q165 0 302.5 -80.5t216.5 -219t79 -304.5q0 -122 -46.5 -232.5t-126 -191.5t-190.5 -128.5t-235 -47.5q-122 0 -232 47.5t-189 128.5t-125 191.5t-46 232.5zM324 580q0 -156 105.5 -265.5t258.5 -109.5q155 0 263 109.5
t108 265.5q0 157 -108 267.5t-263 110.5q-153 0 -258.5 -110.5t-105.5 -267.5zM475 1290l176 285h193l-195 -285h-174zM715 1290l196 285h195l-213 -285h-178z" />
    <glyph glyph-name="Racute.sc" horiz-adv-x="1124" 
d="M168 0v1171h471q93 0 167.5 -32.5t119.5 -86.5t68.5 -121t23.5 -140q0 -134 -75 -237.5t-218 -131.5l299 -422h-276l-275 414h-78v-414h-227zM391 1292l187 285h231l-244 -285h-174zM395 616h226q77 0 117 52t40 123q0 70 -38 123t-111 53h-234v-351z" />
    <glyph glyph-name="Rcaron.sc" horiz-adv-x="1124" 
d="M168 0v1171h471q93 0 167.5 -32.5t119.5 -86.5t68.5 -121t23.5 -140q0 -134 -75 -237.5t-218 -131.5l299 -422h-276l-275 414h-78v-414h-227zM254 1575h174l127 -143l129 143h172l-192 -285h-215zM395 616h226q77 0 117 52t40 123q0 70 -38 123t-111 53h-234v-351z" />
    <glyph glyph-name="Sacute.sc" horiz-adv-x="1030" 
d="M100 348h230q2 -68 54 -115t138 -47q83 0 132.5 37t54.5 96q5 56 -34 94t-122 58l-143 41q-297 81 -297 328q0 152 115 248t282 96q171 0 281 -98t110 -263h-225q0 68 -46 110t-122 42q-70 0 -119 -37t-49 -94q0 -90 135 -127l141 -41q90 -25 156 -65t101.5 -89.5
t51 -101t13.5 -107.5q-7 -152 -128 -242.5t-288 -90.5q-186 0 -304 106t-118 262zM389 1292l186 285h232l-242 -285h-176z" />
    <glyph glyph-name="Scircumflex.sc" horiz-adv-x="1030" 
d="M100 348h230q2 -68 54 -115t138 -47q83 0 132.5 37t54.5 96q5 56 -34 94t-122 58l-143 41q-297 81 -297 328q0 152 115 248t282 96q171 0 281 -98t110 -263h-225q0 68 -46 110t-122 42q-70 0 -119 -37t-49 -94q0 -90 135 -127l141 -41q90 -25 156 -65t101.5 -89.5
t51 -101t13.5 -107.5q-7 -152 -128 -242.5t-288 -90.5q-186 0 -304 106t-118 262zM213 1294l193 287h215l192 -287h-170l-129 146l-129 -146h-172z" />
    <glyph glyph-name="Scedilla.sc" horiz-adv-x="1028" 
d="M102 350h228q2 -67 54.5 -115.5t137.5 -48.5q84 0 133.5 36.5t55.5 96.5q4 55 -35.5 92.5t-120.5 59.5l-143 39q-73 20 -128.5 51.5t-87 65t-50.5 74t-25 72.5t-6 67q0 151 115 247.5t280 96.5q171 0 281 -98.5t110 -262.5h-225q0 67 -45.5 108.5t-122.5 41.5
q-70 0 -119 -36t-49 -93q0 -92 135 -127l141 -43q165 -50 241 -139.5t79 -192.5q3 -142 -90.5 -236.5t-235.5 -115.5q6 -11 18.5 -34.5t18.5 -36.5t14 -32t11.5 -35.5t3.5 -33.5q0 -71 -54 -124.5t-130 -53.5q-75 0 -127.5 58.5t-51.5 156.5l133 -7q-7 -28 14 -59.5
t54 -15.5q20 7 27 28t0 41l-56 142q-170 10 -276.5 113.5t-106.5 252.5z" />
    <glyph glyph-name="Utilde.sc" horiz-adv-x="1204" 
d="M156 412v759h231v-759q0 -93 64 -154t151 -61q89 0 154 60.5t65 154.5v759h228v-759q0 -127 -62 -227t-163.5 -152.5t-221.5 -52.5t-221 52.5t-163 152.5t-62 227zM360 1325q5 114 55 167.5t113 53.5q36 0 79.5 -33.5t68.5 -33.5q12 0 25 16t14 51h129
q-2 -61 -18.5 -105.5t-42 -68t-52 -34.5t-55.5 -11q-34 0 -81 35t-67 35q-12 0 -24 -18.5t-12 -53.5h-132z" />
    <glyph glyph-name="Umacron.sc" horiz-adv-x="1204" 
d="M156 412v759h231v-759q0 -94 63.5 -154.5t151.5 -60.5q89 0 154 60.5t65 154.5v759h228v-759q0 -127 -62 -227t-163.5 -152.5t-221.5 -52.5t-221 52.5t-163 152.5t-62 227zM369 1360v151h467v-151h-467z" />
    <glyph glyph-name="Ubreve.sc" horiz-adv-x="1204" 
d="M156 412v759h231v-759q0 -94 63.5 -154.5t151.5 -60.5q89 0 154 60.5t65 154.5v759h228v-759q0 -127 -62 -227t-163.5 -152.5t-221.5 -52.5t-221 52.5t-163 152.5t-62 227zM373 1542h147q0 -43 20.5 -67.5t59.5 -24.5t59.5 27t20.5 65h154q0 -105 -65 -167t-169 -62
q-111 0 -169 66.5t-58 162.5z" />
    <glyph glyph-name="Uring.sc" horiz-adv-x="1204" 
d="M156 412v759h231v-759q0 -94 63.5 -154.5t151.5 -60.5q89 0 154 60.5t65 154.5v759h228v-759q0 -127 -62 -227t-163.5 -152.5t-221.5 -52.5t-221 52.5t-163 152.5t-62 227zM401 1483q0 86 57 144.5t142 58.5q86 0 144.5 -58.5t58.5 -144.5q0 -85 -58.5 -142t-144.5 -57
q-85 0 -142 57t-57 142zM516 1483q0 -35 25 -59.5t59 -24.5q37 0 62.5 24.5t25.5 59.5q0 36 -26 62t-62 26q-34 0 -59 -26.5t-25 -61.5z" />
    <glyph glyph-name="Uhungarumlaut.sc" horiz-adv-x="1204" 
d="M156 412v759h231v-759q0 -94 63.5 -154.5t151.5 -60.5q89 0 154 60.5t65 154.5v759h228v-759q0 -127 -62 -227t-163.5 -152.5t-221.5 -52.5t-221 52.5t-163 152.5t-62 227zM356 1290l176 285h193l-195 -285h-174zM596 1290l197 285h194l-213 -285h-178z" />
    <glyph glyph-name="Uogonek.sc" horiz-adv-x="1208" 
d="M158 414v757h231v-757q0 -93 64 -153t151 -60q89 0 154 60t65 153v757h228v-757q0 -176 -112.5 -293t-279.5 -135q-36 -93 -53 -144q-7 -21 -0.5 -41.5t25.5 -27.5q34 -16 54.5 15t14.5 60l134 7q1 -99 -52 -157t-127 -58q-77 0 -130.5 53t-53.5 125q0 44 31 112l30 60
q-160 22 -267 138t-107 286z" />
    <glyph glyph-name="Wcircumflex.sc" horiz-adv-x="1576" 
d="M37 1171h246l243 -776l172 617h183l170 -615l245 774h246l-399 -1171h-182l-173 631l-172 -631h-182zM489 1294l193 287h213l195 -287h-172l-130 146l-129 -146h-170z" />
    <glyph glyph-name="Ycircumflex.sc" horiz-adv-x="1171" 
d="M18 1171h271l295 -440l297 440h276l-457 -639v-532h-231v532zM287 1294l192 287h213l193 -287h-172l-127 146l-129 -146h-170z" />
    <glyph glyph-name="Tcaron.sc" horiz-adv-x="976" 
d="M47 965v206h883v-206h-326v-965h-231v965h-326zM201 1575h170l129 -143l129 143h172l-195 -285h-215z" />
    <glyph glyph-name="Tbar.sc" horiz-adv-x="976" 
d="M47 965v206h883v-206h-326v-324h201v-137h-201v-504h-231v504h-195v137h195v324h-326z" />
    <glyph glyph-name="Zacute.sc" horiz-adv-x="1052" 
d="M96 0v178l555 789h-530v204h825v-176l-557 -788h557v-207h-850zM397 1292l187 285h233l-246 -285h-174z" />
    <glyph glyph-name="Zdotaccent.sc" horiz-adv-x="1052" 
d="M96 0v178l555 789h-530v204h825v-176l-557 -788h557v-207h-850zM414 1462q0 52 37 86.5t90 34.5q56 0 92.5 -34.5t36.5 -86.5q0 -54 -36.5 -88.5t-92.5 -34.5q-53 0 -90 35t-37 88z" />
    <glyph glyph-name="Wgrave.sc" horiz-adv-x="1576" 
d="M37 1171h246l243 -776l172 617h183l170 -615l245 774h246l-399 -1171h-182l-173 631l-172 -631h-182zM481 1577h232l186 -285h-176z" />
    <glyph glyph-name="Wacute.sc" horiz-adv-x="1576" 
d="M37 1171h246l243 -776l172 617h183l170 -615l245 774h246l-399 -1171h-182l-173 631l-172 -631h-182zM678 1292l186 285h232l-244 -285h-174z" />
    <glyph glyph-name="Wdieresis.sc" horiz-adv-x="1576" 
d="M37 1171h246l243 -776l172 617h183l170 -615l245 774h246l-399 -1171h-182l-173 631l-172 -631h-182zM520 1450q0 49 36 82t87 33q50 0 85.5 -33t35.5 -82q0 -50 -35.5 -83.5t-85.5 -33.5q-52 0 -87.5 33.5t-35.5 83.5zM813 1450q0 49 36 82t89 33q50 0 85.5 -33
t35.5 -82q0 -50 -35.5 -83.5t-85.5 -33.5q-53 0 -89 33t-36 84z" />
    <glyph glyph-name="Aringacute.sc" horiz-adv-x="1167" 
d="M25 0l438 1171h242l438 -1171h-242l-104 281h-424l-107 -281h-241zM377 1473q0 66 40 119.5t101 74.5l133 205h230l-193 -230q41 -27 66.5 -72t25.5 -97q0 -85 -59.5 -143t-147.5 -58q-80 0 -138 58.5t-58 142.5zM446 481h275l-139 418zM494 1473q0 -35 23.5 -61
t57.5 -26q38 0 64.5 25.5t26.5 61.5q0 37 -26.5 62.5t-64.5 25.5q-34 0 -57.5 -25.5t-23.5 -62.5z" />
    <glyph glyph-name="AEacute.sc" horiz-adv-x="1642" 
d="M4 0l741 1171h773v-206h-502v-285h438v-207h-438v-264h518v-209h-746v274h-335l-177 -274h-272zM584 496h204v354zM788 1292l187 285h231l-243 -285h-175z" />
    <glyph glyph-name="Oslashacute.sc" horiz-adv-x="1378" 
d="M94 580q0 166 78 304.5t214.5 219t299.5 80.5q213 0 377 -135l135 137l86 -86l-135 -137q135 -170 135 -383q0 -122 -46.5 -232.5t-126 -191.5t-190.5 -128.5t-235 -47.5q-202 0 -367 126l-135 -139l-86 88l133 140q-137 170 -137 385zM322 580q0 -130 69 -224l514 531
q-97 71 -219 71q-153 0 -258.5 -110.5t-105.5 -267.5zM477 270q86 -65 209 -65q155 0 263 109.5t108 265.5q0 121 -68 219zM596 1292l184 285h234l-246 -285h-172z" />
    <glyph glyph-name="Ibreve.sc" horiz-adv-x="561" 
d="M51 1542h150q0 -44 21 -68t61 -24q39 0 58 26.5t19 65.5h152q0 -105 -63 -167t-166 -62q-112 0 -172 67t-60 162zM168 0v1171h225v-1171h-225z" />
    <glyph glyph-name="Eng.sc" horiz-adv-x="1206" 
d="M168 0v1171h211l428 -755v755h231v-1148q0 -87 -19.5 -158.5t-61 -130.5t-117 -92t-178.5 -33q-58 0 -164 26l22 222q56 -13 101 -19q55 -3 73 4q55 10 84 57t31 109l-414 733v-741h-227z" />
    <glyph glyph-name="Ygrave.sc" horiz-adv-x="1171" 
d="M18 1171h271l295 -440l297 440h276l-457 -639v-532h-231v532zM291 1577h231l187 -285h-177z" />
    <glyph glyph-name="Gcommaaccent.sc" horiz-adv-x="1327" 
d="M94 580q0 166 79 304.5t216.5 219t302.5 80.5q127 0 238.5 -49.5t189.5 -135.5l-164 -145h-4q-50 54 -118 84.5t-142 30.5q-155 0 -261.5 -113.5t-106.5 -275.5q0 -159 107 -273t261 -114q75 0 142.5 26t113.5 78.5t49 120.5h-317v190h577q0 -159 -40.5 -280t-116 -196.5
t-178 -113.5t-230.5 -38q-124 0 -235 47.5t-190.5 128.5t-126 191.5t-46.5 232.5zM516 -459q91 120 74 377h198q1 -138 -47 -256.5t-110 -169.5z" />
    <glyph glyph-name="Kcommaaccent.sc" horiz-adv-x="1069" 
d="M168 0v1171h229v-407l303 407h269l-447 -581l551 -590h-297l-379 420v-420h-229zM430 -459q91 120 74 377h198q1 -138 -47 -256.5t-110 -169.5z" />
    <glyph glyph-name="Lcommaaccent.sc" horiz-adv-x="876" 
d="M168 0v1171h227v-966h447v-205h-674zM324 -459q90 119 73 377h199q1 -138 -47.5 -256.5t-110.5 -169.5z" />
    <glyph glyph-name="Ncommaaccent.sc" horiz-adv-x="1206" 
d="M168 0v1171h209l432 -727v727h229v-1171h-207l-438 737v-737h-225zM430 -459q91 120 74 377h198q1 -138 -47 -256.5t-110 -169.5z" />
    <glyph glyph-name="Rcommaaccent.sc" horiz-adv-x="1124" 
d="M168 0v1171h471q93 0 167.5 -32.5t119.5 -86.5t68.5 -121t23.5 -140q0 -134 -75 -237.5t-218 -131.5l299 -422h-276l-275 414h-78v-414h-227zM395 616h226q77 0 117 52t40 123q0 70 -38 123t-111 53h-234v-351zM430 -459q91 120 74 377h198q1 -138 -47 -256.5
t-110 -169.5z" />
    <glyph glyph-name="Tcommaaccent.sc" horiz-adv-x="976" 
d="M47 965v206h883v-206h-326v-965h-231v965h-326zM313 -459q91 120 74 377h199q1 -138 -47.5 -256.5t-110.5 -169.5z" />
    <glyph glyph-name="Scommaaccent.sc" horiz-adv-x="1030" 
d="M100 348h230q2 -68 54 -115t138 -47q83 0 133.5 37.5t53.5 95.5q9 108 -156 152l-143 41q-297 81 -297 328q0 152 115 248t282 96q171 0 281 -98t110 -263h-225q0 68 -46 110t-122 42q-70 0 -119 -37t-49 -94q0 -90 135 -127l141 -41q91 -26 156.5 -66.5t101 -89t51 -100
t13.5 -107.5q-7 -152 -128 -242.5t-288 -90.5q-186 0 -304 106t-118 262zM358 -459q91 120 74 377h199q1 -138 -47.5 -256.5t-110.5 -169.5z" />
    <glyph glyph-name="Idotaccent.sc" horiz-adv-x="561" 
d="M154 1462q0 52 37.5 86.5t91.5 34.5q53 0 90 -34.5t37 -86.5q0 -53 -37 -88t-90 -35q-55 0 -92 35t-37 88zM168 0v1171h225v-1171h-225z" />
    <glyph glyph-name="zero.numr" horiz-adv-x="729" 
d="M74 944q0 91 13.5 161.5t45.5 128.5t90.5 89t141.5 31q67 0 118 -21t83 -57t52.5 -89t28.5 -112t8 -131q0 -70 -8 -127t-28.5 -109.5t-52.5 -88.5t-83 -57t-118 -21q-291 0 -291 403zM223 944q0 -258 142 -258q141 0 141 258q0 262 -141 262q-142 0 -142 -262z" />
    <glyph glyph-name="one.numr" horiz-adv-x="436" 
d="M45 1073v135l285 142v-797h-150v582z" />
    <glyph glyph-name="two.numr" horiz-adv-x="651" 
d="M61 1120q19 107 91 170.5t176 63.5q106 0 180 -67.5t74 -170.5q0 -109 -84 -203q-168 -190 -191 -217h262v-143h-503v76l321 385q45 52 45 102q0 41 -30 67.5t-80 26.5q-48 0 -82 -32t-41 -86z" />
    <glyph glyph-name="three.numr" horiz-adv-x="649" 
d="M37 709l127 65q21 -38 54.5 -63t74.5 -25q51 -3 90.5 27t42.5 71q1 18 -4 37t-17 39.5t-38.5 33t-63.5 11.5h-86v129h86q51 0 72.5 36t17.5 67q-2 31 -26.5 55.5t-63.5 24.5q-65 3 -104 -56l-113 78q34 56 98 87.5t140 27.5q99 -6 163 -69.5t64 -149.5q0 -46 -27 -88.5
t-71 -67.5q62 -23 99.5 -85t31.5 -128q-9 -99 -98 -165t-203 -58q-80 6 -146.5 51.5t-99.5 114.5z" />
    <glyph glyph-name="four.numr" horiz-adv-x="708" 
d="M16 723l396 616h143v-487h104v-129h-104v-170h-149v170h-390zM238 852h168v266z" />
    <glyph glyph-name="five.numr" horiz-adv-x="694" 
d="M51 702q6 4 62.5 41t62.5 41q23 -44 65 -70t87 -26q72 0 116.5 38.5t44.5 94.5q0 64 -42 97.5t-105 33.5q-109 0 -190 -78l-72 48l65 417h441v-139h-320l-26 -151q50 34 137 34q112 0 186 -69t74 -193q0 -125 -84.5 -202.5t-224.5 -77.5q-83 0 -158.5 44t-118.5 117z" />
    <glyph glyph-name="six.numr" horiz-adv-x="692" 
d="M76 811q-2 49 -3.5 102t6 106t19 102.5t36.5 92.5t57.5 74t81.5 48.5t110 15.5q37 -2 68 -9.5t63.5 -24t59.5 -47.5t47 -75l-138 -57q-34 73 -104 73q-80 0 -118.5 -69.5t-35.5 -171.5q15 34 59 62t99 28q99 0 172 -73.5t72 -194.5q-1 -112 -80 -184t-199 -70
q-110 2 -186 75.5t-86 196.5zM240 805q0 -51 33 -85t83 -36q48 0 83 34t36 83q0 49 -33.5 84t-81.5 37q-51 0 -85.5 -33.5t-34.5 -83.5z" />
    <glyph glyph-name="seven.numr" horiz-adv-x="643" 
d="M53 1200v139h580l-381 -786h-170l311 647h-340z" />
    <glyph glyph-name="eight.numr" horiz-adv-x="706" 
d="M63 807q0 128 115 199q-57 57 -57 133q0 89 68 152t165 63t164.5 -63t67.5 -152q0 -81 -58 -133q53 -32 84 -84t31 -115q0 -110 -84.5 -188t-204.5 -78q-121 0 -206 78t-85 188zM213 809q0 -53 41.5 -90t99.5 -37q57 0 98.5 37.5t41.5 89.5t-39.5 90.5t-94.5 38.5h-18
q-54 0 -91.5 -39t-37.5 -90zM268 1135q0 -34 23 -58t63 -24q40 1 63 25.5t23 56.5q0 33 -24 56t-62 23q-39 0 -62.5 -23t-23.5 -56z" />
    <glyph glyph-name="nine.numr" horiz-adv-x="692" 
d="M66 1100q3 113 80.5 183t197.5 69q112 -2 188 -75.5t86 -197.5q7 -55 3 -117t-11.5 -123t-31 -116t-56 -96.5t-87 -64.5t-124.5 -21q-51 2 -91 14t-80.5 47.5t-67.5 93.5l139 58q35 -74 104 -74q78 0 117 70.5t37 171.5q-17 -35 -61 -63t-99 -28q-99 0 -171.5 74
t-71.5 195zM219 1092q-1 -51 32 -85t83 -36q50 0 85 33.5t36 82.5q0 50 -34 85t-83 36t-84 -32.5t-35 -83.5z" />
    <glyph glyph-name="zero.dnom" horiz-adv-x="729" 
d="M74 393q0 90 13.5 160t45.5 128t90.5 89t141.5 31t141.5 -31t90 -89t45 -127.5t13.5 -160.5q0 -89 -13.5 -158t-45 -127t-90 -89t-141.5 -31t-141.5 31t-90.5 88.5t-45.5 127t-13.5 158.5zM223 393q0 -260 142 -260q141 0 141 260q0 57 -6.5 101.5t-21.5 81.5t-43.5 57
t-69.5 20q-142 0 -142 -260z" />
    <glyph glyph-name="one.dnom" horiz-adv-x="436" 
d="M47 520v135l285 142v-797h-150v582z" />
    <glyph glyph-name="two.dnom" horiz-adv-x="651" 
d="M61 567q19 107 91 170.5t176 63.5q106 0 180 -67.5t74 -170.5q0 -107 -84 -201q-80 -91 -191 -219h262v-143h-503v78l321 383q45 55 45 102q0 41 -30 67.5t-80 26.5q-47 0 -81.5 -32t-41.5 -84z" />
    <glyph glyph-name="three.dnom" horiz-adv-x="653" 
d="M41 156l127 65q21 -38 54.5 -63t74.5 -25q51 -3 90.5 27t42.5 71q1 18 -4 37t-17 39.5t-38.5 33t-63.5 11.5h-86v129h86q51 0 72.5 36t17.5 67q-2 31 -26.5 55.5t-63.5 24.5q-65 3 -104 -56l-113 78q34 56 98 87.5t140 27.5q99 -6 163 -69.5t64 -149.5q0 -46 -27 -88.5
t-71 -67.5q62 -23 99.5 -85t31.5 -128q-9 -99 -98 -165t-203 -58q-80 6 -146.5 51.5t-99.5 114.5z" />
    <glyph glyph-name="four.dnom" horiz-adv-x="710" 
d="M18 170l396 618h143v-487h105v-131h-105v-170h-149v170h-390zM240 301h168v266z" />
    <glyph glyph-name="five.dnom" horiz-adv-x="694" 
d="M49 150q6 4 62.5 40.5t62.5 40.5q23 -43 65.5 -69.5t86.5 -26.5q72 0 116.5 39t44.5 96q0 63 -42.5 97t-104.5 34q-111 0 -190 -79l-72 47l65 417h441v-139h-320l-26 -151q50 34 137 34q112 0 186 -68.5t74 -191.5q0 -126 -84.5 -204t-224.5 -78q-83 0 -158.5 44
t-118.5 118z" />
    <glyph glyph-name="six.dnom" horiz-adv-x="692" 
d="M76 260q-7 56 -3.5 118.5t10.5 123t30.5 115.5t56 96t87.5 64.5t126 21.5q79 -3 139.5 -37t98.5 -117l-138 -59q-34 73 -104 73q-80 0 -118.5 -69.5t-35.5 -171.5q15 35 59 62.5t99 27.5q99 0 172 -73.5t72 -194.5q-2 -110 -80.5 -181.5t-198.5 -70.5q-111 2 -186.5 75
t-85.5 197zM240 252q0 -50 33.5 -84.5t82.5 -34.5q47 -2 82.5 32t36.5 83q0 51 -33.5 86t-81.5 35q-51 0 -85.5 -33.5t-34.5 -83.5z" />
    <glyph glyph-name="seven.dnom" horiz-adv-x="649" 
d="M55 647v141h580l-381 -788h-170l311 647h-340z" />
    <glyph glyph-name="eight.dnom" horiz-adv-x="706" 
d="M63 254q0 128 115 199q-57 57 -57 133q0 89 68 152t165 63t164.5 -63t67.5 -152q0 -78 -58 -133q53 -32 84 -84t31 -115q0 -110 -84.5 -188t-204.5 -78q-121 0 -206 78t-85 188zM213 258q0 -54 41 -91.5t100 -37.5q57 0 98.5 37.5t41.5 91.5q0 50 -39.5 88.5t-94.5 38.5
h-18q-54 0 -91.5 -38t-37.5 -89zM268 584q0 -35 23 -59.5t63 -24.5q40 1 63 25.5t23 58.5q0 32 -24.5 55t-61.5 23q-38 0 -62 -23t-24 -55z" />
    <glyph glyph-name="nine.dnom" horiz-adv-x="694" 
d="M68 547q3 113 81 184t197 68q112 -2 188.5 -75.5t86.5 -197.5q7 -55 3 -117t-11.5 -123t-31 -116t-56.5 -96.5t-87.5 -64.5t-124.5 -21q-51 2 -91 14t-80.5 47.5t-67.5 93.5l139 60q36 -76 104 -76q78 0 117 70.5t37 173.5q-17 -36 -60.5 -64t-99.5 -28
q-99 0 -171.5 74.5t-71.5 193.5zM221 539q-2 -50 32 -84.5t83 -34.5q49 -1 84 32t37 83q0 51 -33.5 85.5t-83.5 34.5q-49 1 -84 -32.5t-35 -83.5z" />
    <glyph glyph-name="l.alt1" horiz-adv-x="624" 
d="M131 414v1063h252v-1067q-4 -181 141 -181h97v-229h-134q-190 0 -273 108t-83 306z" />
    <glyph glyph-name="a.alt1" horiz-adv-x="1105" 
d="M74 293q0 136 99 218.5t314 82.5q51 0 126.5 -18t117.5 -46v37q0 81 -56 136t-151 55q-66 0 -137.5 -29t-118.5 -90l-147 141q140 197 418 197q207 0 322.5 -105.5t115.5 -304.5v-567h-246v98q-49 -60 -132.5 -89t-154.5 -29q-169 0 -269.5 83.5t-100.5 229.5zM322 309
q0 -45 37.5 -77.5t103.5 -32.5q65 0 146 29.5t120 82.5v45q-41 29 -115.5 44.5t-121.5 15.5q-52 0 -88 -10.5t-52.5 -28t-23 -34t-6.5 -34.5z" />
    <glyph glyph-name="y.alt1" horiz-adv-x="1042" 
d="M20 956h265l237 -587l238 587h266l-469 -1124q-50 -114 -99.5 -177.5t-119.5 -96.5t-172 -33q-59 0 -141 20v219q68 -10 139 -10q61 0 95 40t73 132l57 137z" />
    <glyph glyph-name="lslash.alt1" horiz-adv-x="667" 
d="M16 504v172l154 96v705h252v-547l178 112v-172l-178 -112v-348q-4 -181 141 -181h96v-229h-133q-190 0 -273 108t-83 306v186z" />
    <glyph glyph-name="lacute.alt1" horiz-adv-x="624" 
d="M131 414v1063h252v-1067q-4 -181 141 -181h97v-229h-134q-190 0 -273 108t-83 306zM143 1569l215 334h263l-283 -334h-195z" />
    <glyph glyph-name="lcommaaccent.alt1" horiz-adv-x="624" 
d="M131 414v1063h252v-1067q-4 -181 141 -181h97v-229h-134q-190 0 -273 108t-83 306zM219 -502q66 92 90.5 173.5t20.5 213.5h219q-15 -298 -199 -446z" />
    <glyph glyph-name="lcaron.alt1" horiz-adv-x="624" 
d="M131 414v1063h252v-1067q-4 -181 141 -181h97v-229h-134q-190 0 -273 108t-83 306zM453 1042q141 196 133 435h219q-8 -172 -65 -298t-134 -188z" />
    <glyph glyph-name="aacute.alt1" horiz-adv-x="1105" 
d="M74 293q0 136 99 218.5t314 82.5q51 0 126.5 -18t117.5 -46v37q0 81 -56 136t-151 55q-66 0 -137.5 -29t-118.5 -90l-147 141q140 197 418 197q207 0 322.5 -105.5t115.5 -304.5v-567h-246v98q-49 -60 -132.5 -89t-154.5 -29q-169 0 -269.5 83.5t-100.5 229.5zM322 309
q0 -45 37.5 -77.5t103.5 -32.5q65 0 146 29.5t120 82.5v45q-41 29 -115.5 44.5t-121.5 15.5q-52 0 -88 -10.5t-52.5 -28t-23 -34t-6.5 -34.5zM457 1114l215 334h262l-283 -334h-194z" />
    <glyph glyph-name="agrave.alt1" horiz-adv-x="1105" 
d="M74 293q0 136 99 218.5t314 82.5q51 0 126.5 -18t117.5 -46v37q0 81 -56 136t-151 55q-66 0 -137.5 -29t-118.5 -90l-147 141q140 197 418 197q207 0 322.5 -105.5t115.5 -304.5v-567h-246v98q-49 -60 -132.5 -89t-154.5 -29q-169 0 -269.5 83.5t-100.5 229.5zM197 1448
h262l215 -334h-195zM322 309q0 -45 37.5 -77.5t103.5 -32.5q65 0 146 29.5t120 82.5v45q-41 29 -115.5 44.5t-121.5 15.5q-52 0 -88 -10.5t-52.5 -28t-23 -34t-6.5 -34.5z" />
    <glyph glyph-name="acircumflex.alt1" horiz-adv-x="1105" 
d="M74 293q0 136 99 218.5t314 82.5q51 0 126.5 -18t117.5 -46v37q0 81 -56 136t-151 55q-66 0 -137.5 -29t-118.5 -90l-147 141q140 197 418 197q207 0 322.5 -105.5t115.5 -304.5v-567h-246v98q-49 -60 -132.5 -89t-154.5 -29q-169 0 -269.5 83.5t-100.5 229.5zM197 1120
l223 334h252l225 -334h-192l-160 180l-156 -180h-192zM322 309q0 -45 37.5 -77.5t103.5 -32.5q65 0 146 29.5t120 82.5v45q-41 29 -115.5 44.5t-121.5 15.5q-52 0 -88 -10.5t-52.5 -28t-23 -34t-6.5 -34.5z" />
    <glyph glyph-name="adieresis.alt1" horiz-adv-x="1105" 
d="M74 293q0 136 99 218.5t314 82.5q51 0 126.5 -18t117.5 -46v37q0 81 -56 136t-151 55q-66 0 -137.5 -29t-118.5 -90l-147 141q140 197 418 197q207 0 322.5 -105.5t115.5 -304.5v-567h-246v98q-49 -60 -132.5 -89t-154.5 -29q-169 0 -269.5 83.5t-100.5 229.5zM229 1294
q0 56 41.5 94.5t100.5 38.5q58 0 98.5 -38.5t40.5 -94.5t-40.5 -94.5t-98.5 -38.5q-59 0 -100.5 38.5t-41.5 94.5zM322 309q0 -45 37.5 -77.5t103.5 -32.5q65 0 146 29.5t120 82.5v45q-41 29 -115.5 44.5t-121.5 15.5q-52 0 -88 -10.5t-52.5 -28t-23 -34t-6.5 -34.5z
M586 1294q0 57 41 95t100 38t99 -38t40 -95t-40 -95t-99 -38t-100 38t-41 95z" />
    <glyph glyph-name="atilde.alt1" horiz-adv-x="1105" 
d="M74 293q0 136 99 218.5t314 82.5q51 0 126.5 -18t117.5 -46v37q0 81 -56 136t-151 55q-66 0 -137.5 -29t-118.5 -90l-147 141q140 197 418 197q207 0 322.5 -105.5t115.5 -304.5v-567h-246v98q-49 -60 -132.5 -89t-154.5 -29q-169 0 -269.5 83.5t-100.5 229.5zM276 1155
q7 134 65 195t132 61q38 0 72 -21t61 -42t47 -21q17 0 36 20.5t20 63.5h143q-4 -69 -24 -120.5t-50 -78.5t-61.5 -40t-63.5 -13q-29 0 -57.5 13t-47 29t-39.5 29t-36 13q-16 0 -34 -22t-19 -66h-144zM322 309q0 -45 37.5 -77.5t103.5 -32.5q65 0 146 29.5t120 82.5v45
q-41 29 -115.5 44.5t-121.5 15.5q-52 0 -88 -10.5t-52.5 -28t-23 -34t-6.5 -34.5z" />
    <glyph glyph-name="aring.alt1" horiz-adv-x="1105" 
d="M74 293q0 136 99 218.5t314 82.5q51 0 126.5 -18t117.5 -46v37q0 81 -56 136t-151 55q-66 0 -137.5 -29t-118.5 -90l-147 141q140 197 418 197q207 0 322.5 -105.5t115.5 -304.5v-567h-246v98q-49 -60 -132.5 -89t-154.5 -29q-169 0 -269.5 83.5t-100.5 229.5zM311 1339
q0 101 68.5 170.5t165.5 69.5q101 0 170 -69.5t69 -170.5q0 -98 -69 -165.5t-170 -67.5q-97 0 -165.5 67.5t-68.5 165.5zM322 309q0 -45 37.5 -77.5t103.5 -32.5q65 0 146 29.5t120 82.5v45q-41 29 -115.5 44.5t-121.5 15.5q-52 0 -88 -10.5t-52.5 -28t-23 -34t-6.5 -34.5z
M428 1339q0 -49 34.5 -82.5t82.5 -33.5q51 0 86 33.5t35 82.5q0 51 -35 86t-86 35q-48 0 -82.5 -35t-34.5 -86z" />
    <glyph glyph-name="amacron.alt1" horiz-adv-x="1105" 
d="M74 293q0 136 99 218.5t314 82.5q51 0 126.5 -18t117.5 -46v37q0 81 -56 136t-151 55q-66 0 -137.5 -29t-118.5 -90l-147 141q140 197 418 197q207 0 322.5 -105.5t115.5 -304.5v-567h-246v98q-49 -60 -132.5 -89t-154.5 -29q-169 0 -269.5 83.5t-100.5 229.5zM274 1198
v170h551v-170h-551zM322 309q0 -45 37.5 -77.5t103.5 -32.5q65 0 146 29.5t120 82.5v45q-41 29 -115.5 44.5t-121.5 15.5q-52 0 -88 -10.5t-52.5 -28t-23 -34t-6.5 -34.5z" />
    <glyph glyph-name="abreve.alt1" horiz-adv-x="1105" 
d="M74 293q0 136 99 218.5t314 82.5q51 0 126.5 -18t117.5 -46v37q0 81 -56 136t-151 55q-66 0 -137.5 -29t-118.5 -90l-147 141q140 197 418 197q207 0 322.5 -105.5t115.5 -304.5v-567h-246v98q-49 -60 -132.5 -89t-154.5 -29q-169 0 -269.5 83.5t-100.5 229.5zM285 1407
h168q0 -113 104 -113q51 0 78 33t27 80h169q0 -121 -76 -193.5t-198 -72.5q-90 0 -153 39t-91 97.5t-28 129.5zM322 309q0 -45 37.5 -77.5t103.5 -32.5q65 0 146 29.5t120 82.5v45q-41 29 -115.5 44.5t-121.5 15.5q-52 0 -88 -10.5t-52.5 -28t-23 -34t-6.5 -34.5z" />
    <glyph glyph-name="aogonek.alt1" horiz-adv-x="1105" 
d="M74 293q0 136 99 218.5t314 82.5q51 0 126.5 -18t117.5 -46v37q0 81 -56 136t-151 55q-66 0 -137.5 -29t-118.5 -90l-147 141q140 197 418 197q207 0 322.5 -105.5t115.5 -304.5v-567h-115l-71 -197q-10 -29 -1.5 -56.5t35.5 -37.5q28 -8 53 3.5t35 37.5q4 11 7 24t4 20
v7l141 9q1 -113 -60.5 -179.5t-148.5 -66.5q-89 0 -152 63t-63 146q0 61 18 94l72 133v98q-49 -60 -132.5 -89t-154.5 -29q-169 0 -269.5 83.5t-100.5 229.5zM322 309q0 -45 37.5 -77.5t103.5 -32.5q65 0 146 29.5t120 82.5v45q-41 29 -115.5 44.5t-121.5 15.5
q-52 0 -88 -10.5t-52.5 -28t-23 -34t-6.5 -34.5z" />
    <glyph glyph-name="yacute.alt1" horiz-adv-x="1042" 
d="M20 956h265l237 -587l238 587h266l-469 -1124q-50 -114 -99.5 -177.5t-119.5 -96.5t-172 -33q-59 0 -141 20v219q68 -10 139 -10q61 0 95 40t73 132l57 137zM360 1114l215 334h263l-283 -334h-195z" />
    <glyph glyph-name="ydieresis.alt1" horiz-adv-x="1042" 
d="M20 956h265l237 -587l238 587h266l-469 -1124q-50 -114 -99.5 -177.5t-119.5 -96.5t-172 -33q-59 0 -141 20v219q68 -10 139 -10q61 0 95 40t73 132l57 137zM197 1294q0 57 41 95t100 38q58 0 98.5 -38.5t40.5 -94.5t-40.5 -94.5t-98.5 -38.5q-59 0 -100 38t-41 95z
M553 1294q0 57 41 95t100 38t99.5 -38t40.5 -95t-40.5 -95t-99.5 -38t-100 38t-41 95z" />
    <glyph glyph-name="ae.alt1" horiz-adv-x="1783" 
d="M74 293q0 136 99 218.5t314 82.5q54 0 128.5 -15.5t115.5 -43.5v32q0 81 -56 136t-151 55q-65 0 -137 -30t-119 -91l-147 143q140 197 418 197q230 0 344 -129q142 129 344 129q208 0 346.5 -137t138.5 -359q0 -40 -4 -86h-729q12 -94 84.5 -149.5t179.5 -55.5
q76 0 142 32t98 91l190 -102q-61 -116 -182 -173.5t-264 -57.5q-136 0 -250 63v-43h-246v98q-49 -60 -132.5 -89t-154.5 -29q-169 0 -269.5 83.5t-100.5 229.5zM322 293q0 -38 32.5 -66t96.5 -28q66 0 152.5 29.5t125.5 82.5v37q-41 29 -115.5 44.5t-121.5 15.5
q-52 0 -88 -11.5t-52.5 -31t-23 -37t-6.5 -35.5zM977 565h491q-13 96 -78.5 149.5t-160.5 53.5q-100 0 -169.5 -54t-82.5 -149z" />
    <glyph glyph-name="aeacute.alt1" horiz-adv-x="1783" 
d="M74 293q0 136 99 218.5t314 82.5q54 0 128.5 -15.5t115.5 -43.5v32q0 81 -56 136t-151 55q-65 0 -137 -30t-119 -91l-147 143q140 197 418 197q230 0 344 -129q142 129 344 129q208 0 346.5 -137t138.5 -359q0 -40 -4 -86h-729q12 -94 84.5 -149.5t179.5 -55.5
q76 0 142 32t98 91l190 -102q-61 -116 -182 -173.5t-264 -57.5q-136 0 -250 63v-43h-246v98q-49 -60 -132.5 -89t-154.5 -29q-169 0 -269.5 83.5t-100.5 229.5zM322 293q0 -38 32.5 -66t96.5 -28q66 0 152.5 29.5t125.5 82.5v37q-41 29 -115.5 44.5t-121.5 15.5
q-52 0 -88 -11.5t-52.5 -31t-23 -37t-6.5 -35.5zM803 1114l215 334h262l-283 -334h-194zM977 565h491q-13 96 -78.5 149.5t-160.5 53.5q-100 0 -169.5 -54t-82.5 -149z" />
    <glyph glyph-name="ycircumflex.alt1" horiz-adv-x="1042" 
d="M20 956h265l237 -587l238 587h266l-469 -1124q-50 -114 -99.5 -177.5t-119.5 -96.5t-172 -33q-59 0 -141 20v219q68 -10 139 -10q61 0 95 40t73 132l57 137zM174 1120l223 334h252l225 -334h-192l-160 180l-155 -180h-193z" />
    <glyph glyph-name="ldot.alt1" horiz-adv-x="827" 
d="M131 414v1063h252v-1067q-4 -181 141 -181h97v-229h-134q-190 0 -273 108t-83 306zM500 641q0 67 46.5 111.5t112.5 44.5q68 0 116 -44.5t48 -111.5t-48 -111.5t-116 -44.5q-66 0 -112.5 44.5t-46.5 111.5z" />
    <glyph glyph-name="t.alt1" horiz-adv-x="784" 
d="M49 756v200h174v199l252 80v-279h199v-200h-199v-375q-2 -71 28 -111.5t113 -40.5h93v-229h-129q-193 0 -275 95.5t-82 289.5v371h-174z" />
    <glyph glyph-name="tcaron.alt1" horiz-adv-x="784" 
d="M49 756v200h174v199l252 80v-279h199v-200h-199v-375q-2 -71 28 -111.5t113 -40.5h93v-229h-129q-193 0 -275 95.5t-82 289.5v371h-174zM555 1133q66 92 90.5 173.5t20.5 213.5h219q-14 -297 -197 -447z" />
    <glyph glyph-name="tbar.alt1" horiz-adv-x="788" 
d="M53 756v200h174v199l252 80v-279h199v-200h-199v-205h144v-145h-144v-25q-2 -71 28.5 -111.5t113.5 -40.5h92v-229h-129q-193 0 -275 95.5t-82 289.5v21h-121v145h121v205h-174z" />
    <glyph glyph-name="tcommaaccent.alt1" horiz-adv-x="784" 
d="M49 756v200h174v199l252 80v-279h199v-200h-199v-375q-2 -71 28 -111.5t113 -40.5h93v-229h-129q-193 0 -275 95.5t-82 289.5v371h-174zM289 -502q65 91 89.5 173t20.5 214h219q-15 -298 -198 -446z" />
    <glyph glyph-name="T.sc.alt1" horiz-adv-x="976" 
d="M47 965v206h883v-206h-326v-965h-231v965h-326z" />
    <glyph glyph-name="Tcaron.sc.alt1" horiz-adv-x="976" 
d="M47 965v206h883v-206h-326v-965h-231v965h-326zM201 1575h170l129 -143l129 143h172l-195 -285h-215z" />
    <glyph glyph-name="Tbar.sc.alt1" horiz-adv-x="976" 
d="M47 965v206h883v-206h-326v-324h201v-137h-201v-504h-231v504h-195v137h195v324h-326z" />
    <glyph glyph-name="Tcommaaccent.sc.alt1" horiz-adv-x="976" 
d="M47 965v206h883v-206h-326v-965h-231v965h-326zM313 -459q91 120 74 377h199q1 -138 -47.5 -256.5t-110.5 -169.5z" />
    <glyph glyph-name="aringacute.alt1" horiz-adv-x="1105" 
d="M74 293q0 136 99 218.5t314 82.5q51 0 126.5 -18t117.5 -46v37q0 81 -56 136t-151 55q-66 0 -137.5 -29t-118.5 -90l-147 141q140 197 418 197q207 0 322.5 -105.5t115.5 -304.5v-567h-246v98q-49 -60 -132.5 -89t-154.5 -29q-169 0 -269.5 83.5t-100.5 229.5zM322 309
q0 -45 37.5 -77.5t103.5 -32.5q65 0 146 29.5t120 82.5v45q-41 29 -115.5 44.5t-121.5 15.5q-52 0 -88 -10.5t-52.5 -28t-23 -34t-6.5 -34.5zM322 1327q0 82 45.5 143.5t117.5 85.5l162 250h262l-231 -272q53 -31 85 -86.5t32 -120.5q0 -98 -69.5 -165.5t-170.5 -67.5
q-97 0 -165 67.5t-68 165.5zM438 1327q0 -49 34.5 -83t82.5 -34q51 0 86 34t35 83q0 51 -35 86t-86 35q-48 0 -82.5 -35t-34.5 -86z" />
    </font>
</defs>
</svg>
